IPB

Welcome Guest ( Log In | Register )

EAC and flac
tidende
post Dec 3 2012, 09:46
Post #1





Group: Members
Posts: 7
Joined: 3-December 12
Member No.: 104944



Hi,

I have tried ripping and compressing CD's with EAC 1.0 beta 3 and have them compressed to flac. Unfortunately, I only get the wav-file, the cue-sheet and the txt-file. There does not seem to be anything wrong with the additional command line options: -8 -V -T "ARTIST=%artist%" -T "TITLE=%title%" -T "ALBUM=%albumtitle%" -T "DATE=%year%" -T "TRACKNUMBER=%tracknr%" -T "GENRE=%genre%" -T "COMMENT=%comment%" -T "BAND=%albuminterpret%" -T "ALBUMARTIST=%albuminterpret%" -T "COMPOSER=%composer%" %haslyrics%--tag-from-file=LYRICS="%lyricsfile%"%haslyrics% -T "DISCNUMBER=%cdnumber%" -T "TOTALDISCS=%totalcds%" -T "TOTALTRACKS=%numtracks%" %hascover%--picture="%coverfile%"%hascover% %source% -o %dest%. At least I am not warned of any errors when I test the encoder.

Thanks a lot

Go to the top of the page
+Quote Post
 
Start new topic
Replies
tidende
post Dec 5 2012, 08:48
Post #2





Group: Members
Posts: 7
Joined: 3-December 12
Member No.: 104944



Tried to set the destination folder to C:\. The wav, txt and CUE end up here: C:\Users\Dell Desktop\AppData\Local\VirtualStore and I get an error message with a complex command line (the error message concerns the command line). Will try a simpler command line in a couple of days when I can look at this again. The flac-file is nowhere to be found

Here is the txt:

Exact Audio Copy V1.0 beta 3 from 29. August 2011

EAC extraction logfile from 5. December 2012, 8:38

Efterklang / Piramida

Used drive : PLDS DVD+-RW DH-16ABS Adapter: 0 ID: 2

Read mode : Secure
Utilize accurate stream : Yes
Defeat audio cache : No
Make use of C2 pointers : No

Read offset correction : 6
Overread into Lead-In and Lead-Out : No
Fill up missing offset samples with silence : Yes
Delete leading and trailing silent blocks : No
Null samples used in CRC calculations : Yes
Used interface : Native Win32 interface for Win NT & 2000

Used output format : User Defined Encoder
Selected bitrate : 896 kBit/s
Quality : High
Add ID3 tag : No
Command line compressor : C:\Program Files (x86)\Exact Audio Copy\Flac\flac.exe
Additional command line options : -8 -V -T "ARTIST=%artist%" -T "TITLE=%title%" -T "ALBUM=%albumtitle%" -T "DATE=%year%" -T "TRACKNUMBER=%tracknr%" -T "GENRE=%genre%" -T "COMMENT=%comment%" -T "BAND=%albuminterpret%" -T "ALBUMARTIST=%albumartist%" -T "COMPOSER=%albumcomposer%" %haslyrics%-T "LYRICS=%lyricsfile%"%haslyrics% -T "DISCNUMBER=%cdnumber%" -T "TOTALDISCS=%totalcds%" -T "TOTALTRACKS=%numtracks%" %hascover%-T "PICTURE=%coverfile%"%hascover% %source%


TOC of the extracted CD

Track | Start | Length | Start sector | End sector
---------------------------------------------------------
1 | 0:00.00 | 5:26.03 | 0 | 24452
2 | 5:26.03 | 4:15.66 | 24453 | 43643
3 | 9:41.69 | 4:09.65 | 43644 | 62383
4 | 13:51.59 | 3:43.16 | 62384 | 79124
5 | 17:35.00 | 3:26.40 | 79125 | 94614
6 | 21:01.40 | 4:28.67 | 94615 | 114781
7 | 25:30.32 | 6:30.41 | 114782 | 144072
8 | 32:00.73 | 3:00.62 | 144073 | 157634
9 | 35:01.60 | 5:28.45 | 157635 | 182279
10 | 40:30.30 | 5:38.69 | 182280 | 207698


Range status and errors

Selected range

Filename C:\Efterklang.wav

Peak level 100.0 %
Extraction speed 4.6 X
Range quality 100.0 %
Test CRC 15C3D1CC
Copy CRC 15C3D1CC
Copy OK

No errors occurred


AccurateRip summary

Track 1 not present in database
Track 2 not present in database
Track 3 not present in database
Track 4 not present in database
Track 5 not present in database
Track 6 not present in database
Track 7 not present in database
Track 8 not present in database
Track 9 not present in database
Track 10 not present in database

None of the tracks are present in the AccurateRip database

End of status report

---- CUETools DB Plugin V2.1.3

[CTDB TOCID: GYzS7hIUzGfWCEqiuCrOG6im_Xo-] found, Submit result: already submitted
[eb0bf8fc] (11/12) Accurately ripped
[fd31e6cb] (01/12) No match
Go to the top of the page
+Quote Post

Posts in this topic
- tidende   EAC and flac   Dec 3 2012, 09:46
- - Apesbrain   On the same tab where you set commandline options ...   Dec 3 2012, 15:20
|- - BFG   The EAC tester won't test the lyrics or album ...   Dec 3 2012, 15:38
|- - BFG   Too bad I can't edit my previous post anymore....   Dec 3 2012, 18:17
- - tidende   Thanks for the answers. To Apesbrain: Yes, I have...   Dec 3 2012, 18:32
|- - BFG   QUOTE (tidende @ Dec 3 2012, 11:32) To BF...   Dec 3 2012, 18:38
- - Manlord   I would start with a very simple set of options, l...   Dec 3 2012, 18:49
- - Surfi   :: Why not configure the FLAC command line with E...   Dec 3 2012, 20:20
- - tidende   I have tried all the suggestions. Nothing works. S...   Dec 3 2012, 21:17
|- - Surfi   :: ... posting a .log-file might be helpful ... ...   Dec 3 2012, 21:43
|- - BFG   QUOTE (tidende @ Dec 3 2012, 14:17) I hav...   Dec 4 2012, 00:09
|- - BFG   OK, now that I'm back home, I'll post the ...   Dec 4 2012, 01:47
- - JJZolx   QUOTE (tidende @ Dec 3 2012, 02:46) There...   Dec 3 2012, 22:29
- - greynol   -o %dest% is not necessary   Dec 3 2012, 22:51
- - tidende   EDIT of previously posted post. Ok, I think we a...   Dec 4 2012, 19:28
- - tidende   Tried to set the destination folder to C:\. T...   Dec 5 2012, 08:48
|- - BFG   QUOTE (tidende @ Dec 5 2012, 01:48) stuff...   Dec 5 2012, 23:29
- - naturfreak   Hint: If you do copy and paste the additional comm...   Dec 5 2012, 23:39
- - tidende   It appears that the problem was related to the des...   Dec 7 2012, 00:26
|- - JJZolx   QUOTE (tidende @ Dec 6 2012, 17:26) It ap...   Dec 7 2012, 03:43
||- - BFG   QUOTE (JJZolx @ Dec 6 2012, 20:43) Just g...   Dec 7 2012, 05:42
|- - Surfi   QUOTE (tidende @ Dec 7 2012, 00:26) I wou...   Dec 7 2012, 09:20
- - tidende   I was away for a few days. Thanks again for the su...   Dec 11 2012, 22:17


Reply to this topicStart new topic
1 User(s) are reading this topic (1 Guests and 0 Anonymous Users)
0 Members:

 



RSS Lo-Fi Version Time is now: 28th July 2014 - 21:00