IPB

Welcome Guest ( Log In | Register )

EAC 1.0 beta 3 "File Creation Error"
punsterr
post Oct 8 2012, 08:41
Post #1





Group: Members
Posts: 2
Joined: 8-October 12
Member No.: 103696



Something is amiss in my settings since I upgraded to v 1.0 beta, and I keep getting a File Creation Error. I'm using Win 7 and running EAC as an Administrator. In looking at the forums for similar errors, the Command Line seems to be an area of focus. I've copied this from one of the forums and I don't see where I'm going wrong:

-8 -V -T "ARTIST=%artist%" -T "TITLE=%title%" -T "ALBUM=%albumtitle%" -T "DATE=%year%" -T "TRACKNUMBER=%tracknr%" -T "GENRE=%genre%" -T "COMMENT=%comment%" -T "BAND=%albuminterpret%" -T "ALBUMARTIST=%albuminterpret%" -T "COMPOSER=%composer%" %haslyrics%--tag-from-file=LYRICS="%lyricsfile%"%haslyrics% -T "DISCNUMBER=%cdnumber%" -T "TOTALDISCS=%totalcds%" -T "TOTALTRACKS=%numtracks%" %hascover%--picture="%coverfile%"%hascover% %source% -o %dest%

When I click the Test Encoder, I get no errors. However, even if I try to save the wav file, I get the File Creation Error. Following is a log. Any suggestions?

Exact Audio Copy V1.0 beta 3 from 29. August 2011

EAC extraction logfile from 8. October 2012, 0:33

The Cathryn Beeks Ordeal / Mood Swing

Used drive : PLEXTOR DVDR PX-810SA Adapter: 2 ID: 0

Read mode : Secure
Utilize accurate stream : Yes
Defeat audio cache : Yes
Make use of C2 pointers : No

Read offset correction : 48
Overread into Lead-In and Lead-Out : No
Fill up missing offset samples with silence : Yes
Delete leading and trailing silent blocks : No
Null samples used in CRC calculations : Yes
Used interface : Native Win32 interface for Win NT & 2000
Gap handling : Not detected, thus appended to previous track

Used output format : Internal WAV Routines
Sample format : 44.100 Hz; 16 Bit; Stereo


TOC of the extracted CD

Track | Start | Length | Start sector | End sector
---------------------------------------------------------
1 | 0:00.00 | 3:04.56 | 0 | 13855
2 | 3:04.56 | 3:10.36 | 13856 | 28141
3 | 6:15.17 | 5:59.61 | 28142 | 55127
4 | 12:15.03 | 3:39.32 | 55128 | 71584
5 | 15:54.35 | 3:57.49 | 71585 | 89408
6 | 19:52.09 | 3:47.72 | 89409 | 106505
7 | 23:40.06 | 4:15.04 | 106506 | 125634
8 | 27:55.10 | 4:55.51 | 125635 | 147810
9 | 32:50.61 | 3:48.51 | 147811 | 164961
10 | 36:39.37 | 3:51.39 | 164962 | 182325
11 | 40:31.01 | 2:59.52 | 182326 | 195802
12 | 43:30.53 | 4:23.01 | 195803 | 215528
13 | 47:53.54 | 3:35.38 | 215529 | 231691
14 | 51:29.17 | 4:41.41 | 231692 | 252807
15 | 56:10.58 | 3:13.06 | 252808 | 267288
16 | 59:23.64 | 1:23.45 | 267289 | 273558


Track 1

Filename T:\My Music\EAC\The Cathryn Beeks Ordeal\Mood Swing\01 - - Keep walking.wav

Copy aborted

Track 2

Filename T:\My Music\EAC\The Cathryn Beeks Ordeal\Mood Swing\02 - - Last place.wav

Copy aborted


No tracks could be verified as accurate

No errors occurred

End of status report

==== Log checksum 344F182AAB3B236AC50CD3C6B40467DF53C932ECB27148346D5B49C42AC68D75 ====
Go to the top of the page
+Quote Post
 
Start new topic
Replies
punsterr
post Oct 8 2012, 17:07
Post #2





Group: Members
Posts: 2
Joined: 8-October 12
Member No.: 103696



QUOTE (punsterr @ Oct 7 2012, 23:41) *
Something is amiss in my settings since I upgraded to v 1.0 beta, and I keep getting a File Creation Error. I'm using Win 7 and running EAC as an Administrator. In looking at the forums for similar errors, the Command Line seems to be an area of focus. I've copied this from one of the forums and I don't see where I'm going wrong:

-8 -V -T "ARTIST=%artist%" -T "TITLE=%title%" -T "ALBUM=%albumtitle%" -T "DATE=%year%" -T "TRACKNUMBER=%tracknr%" -T "GENRE=%genre%" -T "COMMENT=%comment%" -T "BAND=%albuminterpret%" -T "ALBUMARTIST=%albuminterpret%" -T "COMPOSER=%composer%" %haslyrics%--tag-from-file=LYRICS="%lyricsfile%"%haslyrics% -T "DISCNUMBER=%cdnumber%" -T "TOTALDISCS=%totalcds%" -T "TOTALTRACKS=%numtracks%" %hascover%--picture="%coverfile%"%hascover% %source% -o %dest%

When I click the Test Encoder, I get no errors. However, even if I try to save the wav file, I get the File Creation Error. Following is a log. Any suggestions?

Exact Audio Copy V1.0 beta 3 from 29. August 2011

EAC extraction logfile from 8. October 2012, 0:33

The Cathryn Beeks Ordeal / Mood Swing

Used drive : PLEXTOR DVDR PX-810SA Adapter: 2 ID: 0

Read mode : Secure
Utilize accurate stream : Yes
Defeat audio cache : Yes
Make use of C2 pointers : No

Read offset correction : 48
Overread into Lead-In and Lead-Out : No
Fill up missing offset samples with silence : Yes
Delete leading and trailing silent blocks : No
Null samples used in CRC calculations : Yes
Used interface : Native Win32 interface for Win NT & 2000
Gap handling : Not detected, thus appended to previous track

Used output format : Internal WAV Routines
Sample format : 44.100 Hz; 16 Bit; Stereo


TOC of the extracted CD

Track | Start | Length | Start sector | End sector
---------------------------------------------------------
1 | 0:00.00 | 3:04.56 | 0 | 13855
2 | 3:04.56 | 3:10.36 | 13856 | 28141
3 | 6:15.17 | 5:59.61 | 28142 | 55127
4 | 12:15.03 | 3:39.32 | 55128 | 71584
5 | 15:54.35 | 3:57.49 | 71585 | 89408
6 | 19:52.09 | 3:47.72 | 89409 | 106505
7 | 23:40.06 | 4:15.04 | 106506 | 125634
8 | 27:55.10 | 4:55.51 | 125635 | 147810
9 | 32:50.61 | 3:48.51 | 147811 | 164961
10 | 36:39.37 | 3:51.39 | 164962 | 182325
11 | 40:31.01 | 2:59.52 | 182326 | 195802
12 | 43:30.53 | 4:23.01 | 195803 | 215528
13 | 47:53.54 | 3:35.38 | 215529 | 231691
14 | 51:29.17 | 4:41.41 | 231692 | 252807
15 | 56:10.58 | 3:13.06 | 252808 | 267288
16 | 59:23.64 | 1:23.45 | 267289 | 273558


Track 1

Filename T:\My Music\EAC\The Cathryn Beeks Ordeal\Mood Swing\01 - - Keep walking.wav

Copy aborted

Track 2

Filename T:\My Music\EAC\The Cathryn Beeks Ordeal\Mood Swing\02 - - Last place.wav

Copy aborted


No tracks could be verified as accurate

No errors occurred

End of status report

==== Log checksum 344F182AAB3B236AC50CD3C6B40467DF53C932ECB27148346D5B49C42AC68D75 ====


Hmmmm...maybe this isn't a FLAC compression error after all. The error pops up before the WAV file is even written. Any suggestions?
Go to the top of the page
+Quote Post

Posts in this topic


Reply to this topicStart new topic
1 User(s) are reading this topic (1 Guests and 0 Anonymous Users)
0 Members:

 



RSS Lo-Fi Version Time is now: 22nd August 2014 - 06:18