IPB

Welcome Guest ( Log In | Register )

> foobar2000 Tech Support Forum Rules

Please read foobar2000 Tech Support Forum Rules before posting and comply with all the points.
Failure to provide all the information pointed out in the above document in your post is considered wasting other people's time and in extreme cases will lead to your topic getting locked without a reply.


See also: Hydrogenaudio Terms of Service.

Error splitting FLAC w/cue—Unable to open file for writing (not found), Was: Error with Cue sheet (TOS #6)
cmg
post Mar 31 2012, 17:50
Post #1





Group: Members
Posts: 12
Joined: 17-June 10
Member No.: 81590



Hi
Foobar2000, v.1.1.11

When splliting a FLAC file, I get this message (different text) for some files: "Source: "D:\..........\T. Pinnock & The English Concert - J. S. Bach, Brandenburgische Konzerte 1-2-3\The English Concert & Trevor Pinnock - Brandenburgische Konzerte 1-2-3.cue" / index: 1
Unable to open file for writing (Object not found) : "D:\Program Files\JDownloader\Downloads\T. Pinnock & The English Concert - J. S. Bach, Brandenburgische Konzerte 1-2-3\The English Concert & Trevor Pinnock - Brandenburgische Konzerte 1-2-3\01. Concerto No. 1, BWV 1046 in F major - 1 ohne Satzbezeichnung (no tempo indica...).flac"
Conversion failed: Object not found"

The cue is:
CODE
REM GENRE Classical
REM DATE 1982
REM DISCID 800A2F0A
REM COMMENT "ExactAudioCopy v1.0b2"
CATALOG 0028941050021
PERFORMER "The English Concert & Trevor Pinnock"
TITLE "Brandenburgische Konzerte 1-2-3"
FILE "The English Concert & Trevor Pinnock - Brandenburgische Konzerte 1-2-3.flac" WAVE
TRACK 01 AUDIO
TITLE "Concerto No. 1, BWV 1046 in F major - 1 ohne Satzbezeichnung (no tempo indica...)"
PERFORMER "The English Concert & Trevor Pinnock"
ISRC DEF058200360
INDEX 00 00:00:00
INDEX 01 00:00:32
TRACK 02 AUDIO
TITLE "Concerto No. 1, BWV 1046 in F major - 2 Adagio"
PERFORMER "The English Concert & Trevor Pinnock"
ISRC DEF058200360
INDEX 00 04:07:27
INDEX 01 04:11:27
TRACK 03 AUDIO
TITLE "Concerto No. 1, BWV 1046 in F major - 3 Allegro"
PERFORMER "The English Concert & Trevor Pinnock"
ISRC DEF058200360
INDEX 00 08:24:38
INDEX 01 08:24:60
TRACK 04 AUDIO
TITLE "Concerto No. 1, BWV 1046 in F major - 4 Menuetto - Trio I - Polacca - Trio II"
PERFORMER "The English Concert & Trevor Pinnock"
ISRC DEF058200360
INDEX 00 12:30:45
INDEX 01 12:34:25
TRACK 05 AUDIO
TITLE "Concerto No. 2, BWV 1047 in F major - 1 ohne Satzbezeichnung (no tempo indica...)"
PERFORMER "The English Concert & Trevor Pinnock"
ISRC DEF058200370
INDEX 00 19:59:45
INDEX 01 20:05:17
TRACK 06 AUDIO
TITLE "Concerto No. 2, BWV 1047 in F major - 2 Andante"
PERFORMER "The English Concert & Trevor Pinnock"
ISRC DEF058200370
INDEX 00 25:19:05
INDEX 01 25:23:47
TRACK 07 AUDIO
TITLE "Concerto No. 2, BWV 1047 in F major - 3 Allegro assai"
PERFORMER "The English Concert & Trevor Pinnock"
ISRC DEF058200370
INDEX 00 29:15:68
INDEX 01 29:16:27
TRACK 08 AUDIO
TITLE "Concerto No. 3, BWV 1048 in G major - 1 ohne Satzbezeichnung (no tempo indica...)"
PERFORMER "The English Concert & Trevor Pinnock"
ISRC DEF058200410
INDEX 00 32:19:35
INDEX 01 32:23:47
TRACK 09 AUDIO
TITLE "Concerto No. 3, BWV 1048 in G major - 2 Adagio"
PERFORMER "The English Concert & Trevor Pinnock"
ISRC DEF058200410
INDEX 00 38:08:48
INDEX 01 38:08:50
TRACK 10 AUDIO
TITLE "Concerto No. 3, BWV 1048 in G major - 3 Allegro"
PERFORMER "The English Concert & Trevor Pinnock"
ISRC DEF058200410
INDEX 00 38:41:28
INDEX 01 38:42:20

What's wrong?
Thanks for any help
Regards
cmg

This post has been edited by db1989: Mar 31 2012, 22:22
Reason for edit: Please place large items within [codebox] tags.
Go to the top of the page
+Quote Post
 
Start new topic
Replies
Andreasvb
post Mar 31 2012, 18:30
Post #2





Group: Members
Posts: 1337
Joined: 6-March 04
From: Sweden
Member No.: 12509



QUOTE
01. Concerto No. 1, BWV 1046 in F major - 1 ohne Satzbezeichnung (no tempo indica...).flac

QUOTE
FILE "The English Concert & Trevor Pinnock - Brandenburgische Konzerte 1-2-3.flac" WAVE


Does not compute.

Try rename or change so it goes to correct file.


--------------------
Windows 8.1u1 Pro x64 Media Center // foobar2000 1.3.3
Go to the top of the page
+Quote Post

Posts in this topic


Reply to this topicStart new topic
1 User(s) are reading this topic (1 Guests and 0 Anonymous Users)
0 Members:

 



RSS Lo-Fi Version Time is now: 1st September 2014 - 09:50