IPB

Welcome Guest ( Log In | Register )

 
Reply to this topicStart new topic
FLAC Cue question., trying to repair a messed up cue sheet to burn (without a rerip)
PixieStix
post Oct 15 2011, 11:11
Post #1





Group: Members
Posts: 1
Joined: 15-October 11
Member No.: 94398



I ran this cd through medival cue splitter, but what does this mean when I load a cue n it says:

#CUE Splitter log file#
1|23|No track was specified for previous "FILE" command.
1|39|No track was specified for previous "FILE" command.
1|50|No track was specified for previous "FILE" command.

CODE
REM ACCURATERIPID 000f275c-006d5d89-8209f609
REM DATE 1975
REM DISCID 8209F609
REM COMMENT "ExactAudioCopy v0.99pb5"
PERFORMER "AC/DC"
TITLE "T.N.T."
CATALOG 9399746526228
REM DISCNUMBER 1
REM TOTALDISCS 1
FILE "01 - It's a Long Way to the Top (If You Wanna Rock 'n' Roll).flac" WAVE
TRACK 01 AUDIO
TITLE "It's a Long Way to the Top (If You Wanna Rock 'n' Roll)"
PERFORMER "AC/DC"
INDEX 01 00:00:00
FILE "02 - Rock 'n' Roll Singer.flac" WAVE
TRACK 02 AUDIO
TITLE "Rock 'n' Roll Singer"
PERFORMER "AC/DC"
INDEX 01 00:00:00
TRACK 03 AUDIO
TITLE "The Jack"
PERFORMER "AC/DC"
INDEX 00 05:04:73
FILE "03 - The Jack.flac" WAVE
INDEX 01 00:00:00
FILE "04 - Live Wire.flac" WAVE
TRACK 04 AUDIO
TITLE "Live Wire"
PERFORMER "AC/DC"
INDEX 01 00:00:00
FILE "05 - T.N.T..flac" WAVE
TRACK 05 AUDIO
TITLE "T.N.T."
PERFORMER "AC/DC"
INDEX 01 00:00:00
TRACK 06 AUDIO
TITLE "Rocker"
PERFORMER "AC/DC"
INDEX 00 03:35:23
FILE "06 - Rocker.flac" WAVE
INDEX 01 00:00:00
FILE "07 - Can I Sit Next to You Girl.flac" WAVE
TRACK 07 AUDIO
TITLE "Can I Sit Next to You Girl"
PERFORMER "AC/DC"
INDEX 01 00:00:00
TRACK 08 AUDIO
TITLE "High Voltage"
PERFORMER "AC/DC"
INDEX 00 04:11:15
FILE "08 - High Voltage.flac" WAVE
INDEX 01 00:00:00
FILE "09 - School Days.flac" WAVE
TRACK 09 AUDIO
TITLE "School Days"
PERFORMER "AC/DC"
INDEX 01 00:00:00

Here is screen shot of when i try to burn it to an image on nero



Uploaded with ImageShack.us

Can this be fixed? Im also getting it happening with cue tools splitting....
of image +cue of other cds

This post has been edited by greynol: Oct 15 2011, 16:59
Reason for edit: cue placed in codebox
Go to the top of the page
+Quote Post
Rollin
post Oct 15 2011, 12:27
Post #2





Group: Members
Posts: 189
Joined: 5-March 08
Member No.: 51815



Maybe flac is corrupted?

This post has been edited by Rollin: Oct 15 2011, 12:30
Go to the top of the page
+Quote Post
greynol
post Oct 15 2011, 16:59
Post #3





Group: Super Moderator
Posts: 10000
Joined: 1-April 04
From: San Francisco
Member No.: 13167



The problem is with the burning program.

It looks like perfectly good noncompliant cue to me.

Decompress the flacs to wave, replace all instances of .flac in the cue sheet to .wav, and then try loading it into EAC. You will probably not have any errors.

This post has been edited by greynol: Oct 15 2011, 18:08


--------------------
Placebophiles: put up or shut up!
Go to the top of the page
+Quote Post
mjb2006
post Oct 15 2011, 22:56
Post #4





Group: Members
Posts: 755
Joined: 12-May 06
From: Colorado, USA
Member No.: 30694



More helpfully: Cue sheets are "officially" designed for "image" rips, where all of the audio is in one file.* You have a rip where the audio is in separate files. It's impossible to have a valid cue sheet for this kind of rip, unless one of the rules for cue sheet formatting is relaxed (the rule about where FILE is allowed). Exact Audio Copy (EAC) is a ripper & burner which relaxes the rule so that the cue sheet can apply to the very common and useful file-per-track type of rip. EAC can create these "noncompliant" cue sheets, and can also burn from them if the source files are WAV, hence greynol's advice to convert them first. The other software you are using is more strict when it reads these cue sheets, even though it doesn't really need to be.

You should read the cue sheet article in our wiki for more info.

* Cue sheets don't have an official spec; they're just a format invented for one of the very first ripping/burning programs, and no one has bothered to turn it into a more general, open, and flexible standard that works with every kind of rip. And technically, they do officially support file-per-track rips, but only when the files are cut with very unusual boundaries ("gaps prepended").
Go to the top of the page
+Quote Post
sauvage78
post Oct 17 2011, 04:00
Post #5





Group: Members
Posts: 677
Joined: 4-May 08
Member No.: 53282



I am ashamed blush.gif ... Greynol is right once again emot-cop.gif ... I was misslead by the non-codeboxed CUE (no layout) & the line number error messages.

I have an AR(50+) CDImage of a different pressing of your CD ... I splitted it & it looks almost exactly as yours except for timings. I doubt the CUE is damaged at all, I think it's a burning software issue, the software doesn't seem to support CUE with two TRACK command for one FILE command.

Anyway medieval cue splitter is crap, it's more surprising for Nero ... try something specialized in audio like Burrrn, I don't think it is supported anymore but I can't think of anything else as I don't burrrn anymore. Anyway Gambit still rrrullz, so it should work.

This post has been edited by sauvage78: Oct 17 2011, 04:24


--------------------
CDImage+CUE
Secure [Low/C2/AR(2)]
Flac -4
Go to the top of the page
+Quote Post

Reply to this topicStart new topic
1 User(s) are reading this topic (1 Guests and 0 Anonymous Users)
0 Members:

 



RSS Lo-Fi Version Time is now: 24th July 2014 - 16:58