IPB

Welcome Guest ( Log In | Register )

Splitting Flac Image Quality
lordemsworth
post Jul 30 2011, 20:39
Post #1





Group: Members
Posts: 3
Joined: 30-July 11
Member No.: 92664



Hello all,

I've done some searches but I haven't been able to find this answer explicitly - and I was hoping that the knowledgeable people here could help.
When I first started to digitize my collection, I did flac images with cue sheets because my squeezebox supported it.

There was a version during the 7.x switch that it became flaky so I completed the activity by ripping to individual tracks.

I was building a new DIY NAS and I noticed that with 7.5.4 the splitting wouldn't work unless I used Windows. Which is fine.

I wanted to split the images into individual tracks and I know that Medieval Cue Splitter doesn't maintain file quality integrity.

Perusing the forums, I see that people recommend foobar2000 or CueTools - my question is, but splitting files, is the quality preserved, or should I just rip all 70 discs to individual tracks?

Amir
Go to the top of the page
+Quote Post
 
Start new topic
Replies
damoresh
post May 14 2012, 10:20
Post #2





Group: Members
Posts: 21
Joined: 12-July 09
Member No.: 71413



In this accurip log that was generated after splitting the Doors album using CUEtools why is the audio offsetted by so many different values? -1268,-373,-309,-200,928,962? And of these which offset value did CUEtools use for creating my tracks.
CUE tools even generated a 426ms "00. (HTOA).flac" file HIdden track . Is it necessary to preserve this track along with the others or simply delete this. It contains no audio.

CODE
Pregap length 00:00:32.
[AccurateRip ID: 000f7a07-00899488-970a6d0b] found.
Track [ CRC | V2 ] Status
01 [e26f8448|ee15e564] (098+012/514) Accurately ripped
02 [8651060e|a9d95fa5] (098+012/515) Accurately ripped
03 [74fa225f|16433d7c] (096+012/518) Accurately ripped
04 [ed18d745|0509b32e] (098+012/524) Accurately ripped
05 [646ab9d3|0dfc039c] (098+012/525) Accurately ripped
06 [6020e63c|428d7e8d] (099+012/519) Accurately ripped
07 [3ddf3e74|cf99d450] (102+012/521) Accurately ripped
08 [4f2d7418|282adb14] (101+012/519) Accurately ripped
09 [ac5d17a9|fc0c0448] (098+012/519) Accurately ripped
10 [b888cf35|85630ede] (100+012/520) Accurately ripped
11 [56c10f6b|f772b18e] (095+012/498) Accurately ripped
Offsetted by -1268:
01 [8f58a664] (010/514) Accurately ripped
02 [f063e3f2] (014/515) Accurately ripped
03 [50680cbb] (014/518) Accurately ripped
04 [af7eece9] (013/524) Accurately ripped
05 [bc1ab9d3] (015/525) Accurately ripped
06 [ff68e63c] (011/519) Accurately ripped
07 [150607b4] (013/521) Accurately ripped
08 [3d72aad8] (012/519) Accurately ripped
09 [027517a9] (013/519) Accurately ripped
10 [ae12c379] (014/520) Accurately ripped
11 [88e52d0e] (011/498) Accurately ripped
Offsetted by -373:
01 [448ae8f7] (051/514) Accurately ripped
02 [3f5ca15f] (050/515) Accurately ripped
03 [59ddb29e] (055/518) Accurately ripped
04 [41224706] (055/524) Accurately ripped
05 [2e76b9d3] (053/525) Accurately ripped
06 [14a2e63c] (054/519) Accurately ripped
07 [97011044] (052/521) Accurately ripped
08 [116ea248] (054/519) Accurately ripped
09 [417317a9] (054/519) Accurately ripped
10 [d01b625e] (054/520) Accurately ripped
11 [ebe25df4] (047/498) Accurately ripped
Offsetted by -309:
01 [7389a437] (200/514) Accurately ripped
02 [659de61f] (200/515) Accurately ripped
03 [dc1d99de] (200/518) Accurately ripped
04 [18a25fc6] (200/524) Accurately ripped
05 [1776b9d3] (200/525) Accurately ripped
06 [0622e63c] (200/519) Accurately ripped
07 [b7c0ec44] (200/521) Accurately ripped
08 [52eec648] (200/519) Accurately ripped
09 [41f317a9] (200/519) Accurately ripped
10 [8d9b491e] (200/520) Accurately ripped
11 [64a1ccb4] (200/498) Accurately ripped
Offsetted by -200:
01 [6f937b20] (071/514) Accurately ripped
02 [cec50f36] (069/515) Accurately ripped
03 [3df26fb7] (067/518) Accurately ripped
04 [aba889ed] (070/524) Accurately ripped
05 [4c4ab9d3] (071/525) Accurately ripped
06 [8d70e63c] (068/519) Accurately ripped
07 [9787aef4] (067/521) Accurately ripped
08 [827d0398] (065/519) Accurately ripped
09 [6acd17a9] (067/519) Accurately ripped
10 [a8591e1d] (069/520) Accurately ripped
11 [1647d553] (060/498) Accurately ripped
Offsetted by 928:
01 [0bdd1f68] (016/514) Accurately ripped
02 [b1036aee] (016/515) Accurately ripped
03 [5598bb7f] (016/518) Accurately ripped
04 [a1da3e25] (017/524) Accurately ripped
05 [96eab9d3] (018/525) Accurately ripped
06 [8de0e63c] (018/519) Accurately ripped
07 [18bd3474] (017/521) Accurately ripped
08 [04ef7e18] (017/519) Accurately ripped
09 [b39d17a9] (017/519) Accurately ripped
10 [74476115] (016/520) Accurately ripped
11 [8ebcd54b] (016/498) Accurately ripped
Offsetted by 962:
01 [5cd472e2] (008/514) Accurately ripped
02 [55561774] (008/515) Accurately ripped
03 [42caae59] (009/518) Accurately ripped
04 [fc564b4b] (009/524) Accurately ripped
05 [a2b2b9d3] (009/525) Accurately ripped
06 [c62ce63c] (008/519) Accurately ripped
07 [ba232154] (008/521) Accurately ripped
08 [a7bb9138] (008/519) Accurately ripped
09 [43e117a9] (008/519) Accurately ripped
10 [48f353ab] (005/520) Accurately ripped
11 [332a8821] (007/498) Accurately ripped

Any help will really be appreciated.

This post has been edited by Frank Bicking: May 14 2012, 12:36
Reason for edit: Codeboxed.
Go to the top of the page
+Quote Post
Porcus
post May 14 2012, 11:41
Post #3





Group: Members
Posts: 1995
Joined: 30-November 06
Member No.: 38207



QUOTE (damoresh @ May 14 2012, 11:20) *
why is the audio offsetted by so many different values?
[...]
Any help will really be appreciated.


With 'codebox' instead of 'code', you'll get more help dry.gif

CODE












(They are many because there are many different pressings with different offsets.)


--------------------
One day in the Year of the Fox came a time remembered well
Go to the top of the page
+Quote Post

Posts in this topic


Reply to this topicStart new topic
1 User(s) are reading this topic (1 Guests and 0 Anonymous Users)
0 Members:

 



RSS Lo-Fi Version Time is now: 26th December 2014 - 00:43