IPB

Welcome Guest ( Log In | Register )

XLD: final test of what Ive learned, help me get all settings correct, Was: XLD: final test, help to define the entire work...
Jedi82
post Jul 6 2011, 21:53
Post #1





Group: Members
Posts: 81
Joined: 8-November 02
From: Italy
Member No.: 3728



maybe it will be a good idea to create a single thread where everybody can post his rip logs test to get an help by the community, what do you think about it? Searching the forum, there is nothing about it smile.gifsmile.gif

So, learning a lot in these 2 days thanks to you, i'm here to test all my knowledges and get the final helps.

Album --> XX - The XX

1 TEST


i create a single file + cue and on the flac option i checked the allow to embed cue sheet and about tagging you can see my settings here -->



Then, i see before the rip that the cd is AR: Yes so i can made a burst rip with the options that you can see on the screen




time to create the rip: 5 min and here is the log:

CODE

X Lossless Decoder version 20110703 (135.1)

XLD extraction logfile from 2011-07-06 22:28:15 +0200

The XX / XX

Used drive : MATSHITA DVD-R UJ-898 (revision HC09)

Ripper mode : Burst
Disable audio cache : NO
Make use of C2 pointers : NO
Read offset correction : 102
Max retry count : 20
Gap status : Analyzed, Appended

TOC of the extracted CD
Track | Start | Length | Start sector | End sector
---------------------------------------------------------
1 | 00:00:00 | 02:07:69 | 0 | 9593
2 | 02:07:69 | 02:57:07 | 9594 | 22875
3 | 05:05:01 | 03:21:71 | 22876 | 38021
4 | 08:26:72 | 02:40:54 | 38022 | 50075
5 | 11:07:51 | 04:02:20 | 50076 | 68245
6 | 15:09:71 | 02:38:18 | 68246 | 80113
7 | 17:48:14 | 04:30:18 | 80114 | 100381
8 | 22:18:32 | 03:08:09 | 100382 | 114490
9 | 25:26:41 | 05:13:29 | 114491 | 137994
10 | 30:39:70 | 03:36:64 | 137995 | 154258
11 | 34:16:59 | 04:22:48 | 154259 | 173956

List of alternate offset correction values
# | Absolute | Relative | Confidence
------------------------------------------
1 | -1270 | -1372 | 98
2 | -1366 | -1468 | 28
3 | 96 | -6 | 13
4 | -579 | -681 | 8
5 | 108 | 6 | 4
6 | 132 | 30 | 2

AccurateRip Summary
Track 01 : OK (AR2, confidence 60)
Track 02 : OK (AR2, confidence 60)
Track 03 : OK (AR2, confidence 60)
Track 04 : OK (AR2, confidence 60)
Track 05 : OK (AR2, confidence 60)
Track 06 : OK (AR2, confidence 60)
Track 07 : OK (AR2, confidence 60)
Track 08 : OK (AR2, confidence 60)
Track 09 : OK (AR2, confidence 60)
Track 10 : OK (AR2, confidence 59)
Track 11 : OK (AR2, confidence 59)
->All tracks accurately ripped.

All Tracks
Filename : /Users/jedi82/Downloads/rip/01 The XX - XX.flac
Album gain : -5.99 dB
Peak : 1.000000
CRC32 hash : 37692DD4
CRC32 hash (skip zero) : 2D60A083

Track 01
Pre-gap length : 00:02:00

Track gain : -7.44 dB
Peak : 1.000000
CRC32 hash : 1BC1B745
CRC32 hash (skip zero) : 519A696F
AccurateRip signature : C903F4A0
->Accurately ripped! (AR2, confidence 60)

Track 02

Track gain : -6.21 dB
Peak : 1.000000
CRC32 hash : E66E20C2
CRC32 hash (skip zero) : ADB7AC39
AccurateRip signature : 97B099E2
->Accurately ripped! (AR2, confidence 60)

Track 03
Pre-gap length : 00:00:52

Track gain : -7.95 dB
Peak : 1.000000
CRC32 hash : B182EBBF
CRC32 hash (skip zero) : CC0DE1CA
AccurateRip signature : BF8F6273
->Accurately ripped! (AR2, confidence 60)

Track 04

Track gain : -8.48 dB
Peak : 1.000000
CRC32 hash : 922D71A0
CRC32 hash (skip zero) : 5422A362
AccurateRip signature : 0A22F1F5
->Accurately ripped! (AR2, confidence 60)

Track 05

Track gain : -6.12 dB
Peak : 1.000000
CRC32 hash : DD5111A1
CRC32 hash (skip zero) : 99C42CD1
AccurateRip signature : B103C124
->Accurately ripped! (AR2, confidence 60)

Track 06

Track gain : -4.77 dB
Peak : 1.000000
CRC32 hash : 117F1FBE
CRC32 hash (skip zero) : 4E0B3A1E
AccurateRip signature : D15E01F0
->Accurately ripped! (AR2, confidence 60)

Track 07

Track gain : -3.30 dB
Peak : 1.000000
CRC32 hash : C7C919ED
CRC32 hash (skip zero) : F31D0113
AccurateRip signature : 068AFD00
->Accurately ripped! (AR2, confidence 60)

Track 08

Track gain : -3.15 dB
Peak : 1.000000
CRC32 hash : 0998C0B5
CRC32 hash (skip zero) : C95F0AF1
AccurateRip signature : 0C6324CC
->Accurately ripped! (AR2, confidence 60)

Track 09

Track gain : -5.50 dB
Peak : 1.000000
CRC32 hash : F6E79558
CRC32 hash (skip zero) : 80206DC8
AccurateRip signature : 0916001C
->Accurately ripped! (AR2, confidence 60)

Track 10

Track gain : -4.18 dB
Peak : 1.000000
CRC32 hash : 27C40D7F
CRC32 hash (skip zero) : 8557D8FA
AccurateRip signature : 758A65FE
->Accurately ripped! (AR2, confidence 59)

Track 11
Pre-gap length : 00:03:25

Track gain : -2.97 dB
Peak : 1.000000
CRC32 hash : 20BD9561
CRC32 hash (skip zero) : C8C68D5E
AccurateRip signature : EF049077
->Accurately ripped! (AR2, confidence 59)

End of status report


how can i set YES to Disable audio cache?? All went good right? I notice in the log file a List of alternate offset correction values, it matter or what? Testing the cache capacity here is the result:

CODE
X Lossless Decoder version 20110703 (135.1)

XLD drive cache analysis logfile

Used drive : MATSHITA DVD-R   UJ-898 (revision HC09)

Il tuo drive appare avere una cache di 8 settori (18 KB).
La dimensione della cache √ abbastanza piccola per l'engine cdparanoia III 10.2. :)

End of status report



2 TEST


single flac files with embed cue sheet unchecked, save cue file automaticly and the rest is on the screen:



time to create the rip: 8 min and here is the log:

CODE

X Lossless Decoder version 20110703 (135.1)

XLD extraction logfile from 2011-07-06 22:42:32 +0200

The XX / XX

Used drive : MATSHITA DVD-R UJ-898 (revision HC09)

Ripper mode : XLD Secure Ripper
Disable audio cache : OK for the drive with a cache less than 1375KiB
Make use of C2 pointers : NO
Read offset correction : 102
Max retry count : 20
Gap status : Analyzed, Appended

TOC of the extracted CD
Track | Start | Length | Start sector | End sector
---------------------------------------------------------
1 | 00:00:00 | 02:07:69 | 0 | 9593
2 | 02:07:69 | 02:57:07 | 9594 | 22875
3 | 05:05:01 | 03:21:71 | 22876 | 38021
4 | 08:26:72 | 02:40:54 | 38022 | 50075
5 | 11:07:51 | 04:02:20 | 50076 | 68245
6 | 15:09:71 | 02:38:18 | 68246 | 80113
7 | 17:48:14 | 04:30:18 | 80114 | 100381
8 | 22:18:32 | 03:08:09 | 100382 | 114490
9 | 25:26:41 | 05:13:29 | 114491 | 137994
10 | 30:39:70 | 03:36:64 | 137995 | 154258
11 | 34:16:59 | 04:22:48 | 154259 | 173956

List of alternate offset correction values
# | Absolute | Relative | Confidence
------------------------------------------
1 | -1270 | -1372 | 98
2 | -1366 | -1468 | 28
3 | 96 | -6 | 13
4 | -579 | -681 | 8
5 | 108 | 6 | 4
6 | 132 | 30 | 2

AccurateRip Summary
Track 01 : OK (AR2, confidence 60)
Track 02 : OK (AR2, confidence 60)
Track 03 : OK (AR2, confidence 60)
Track 04 : OK (AR2, confidence 60)
Track 05 : OK (AR2, confidence 60)
Track 06 : OK (AR2, confidence 60)
Track 07 : OK (AR2, confidence 60)
Track 08 : OK (AR2, confidence 60)
Track 09 : OK (AR2, confidence 60)
Track 10 : OK (AR2, confidence 59)
Track 11 : OK (AR2, confidence 59)
->All tracks accurately ripped.

All Tracks
Album gain : -5.99 dB
Peak : 1.000000
Statistics
Read error : 0
Jitter error (maybe fixed) : 0
Retry sector count : 0
Damaged sector count : 0

Track 01
Filename : /Users/jedi82/Downloads/rip/01 The XX - Intro.flac
Pre-gap length : 00:02:00

Track gain : -7.44 dB
Peak : 1.000000
CRC32 hash : 1BC1B745
CRC32 hash (skip zero) : 519A696F
AccurateRip signature : C903F4A0
->Accurately ripped! (AR2, confidence 60)
Statistics
Read error : 0
Jitter error (maybe fixed) : 0
Retry sector count : 0
Damaged sector count : 0

Track 02
Filename : /Users/jedi82/Downloads/rip/02 The XX - VCR.flac

Track gain : -6.21 dB
Peak : 1.000000
CRC32 hash : E66E20C2
CRC32 hash (skip zero) : ADB7AC39
AccurateRip signature : 97B099E2
->Accurately ripped! (AR2, confidence 60)
Statistics
Read error : 0
Jitter error (maybe fixed) : 0
Retry sector count : 0
Damaged sector count : 0

Track 03
Filename : /Users/jedi82/Downloads/rip/03 The XX - Crystalised.flac
Pre-gap length : 00:00:52

Track gain : -7.95 dB
Peak : 1.000000
CRC32 hash : B182EBBF
CRC32 hash (skip zero) : CC0DE1CA
AccurateRip signature : BF8F6273
->Accurately ripped! (AR2, confidence 60)
Statistics
Read error : 0
Jitter error (maybe fixed) : 0
Retry sector count : 0
Damaged sector count : 0

Track 04
Filename : /Users/jedi82/Downloads/rip/04 The XX - Islands.flac

Track gain : -8.48 dB
Peak : 1.000000
CRC32 hash : 922D71A0
CRC32 hash (skip zero) : 5422A362
AccurateRip signature : 0A22F1F5
->Accurately ripped! (AR2, confidence 60)
Statistics
Read error : 0
Jitter error (maybe fixed) : 0
Retry sector count : 0
Damaged sector count : 0

Track 05
Filename : /Users/jedi82/Downloads/rip/05 The XX - Heart Skipped A Beat.flac

Track gain : -6.12 dB
Peak : 1.000000
CRC32 hash : DD5111A1
CRC32 hash (skip zero) : 99C42CD1
AccurateRip signature : B103C124
->Accurately ripped! (AR2, confidence 60)
Statistics
Read error : 0
Jitter error (maybe fixed) : 0
Retry sector count : 0
Damaged sector count : 0

Track 06
Filename : /Users/jedi82/Downloads/rip/06 The XX - Fantasy.flac

Track gain : -4.77 dB
Peak : 1.000000
CRC32 hash : 117F1FBE
CRC32 hash (skip zero) : 4E0B3A1E
AccurateRip signature : D15E01F0
->Accurately ripped! (AR2, confidence 60)
Statistics
Read error : 0
Jitter error (maybe fixed) : 0
Retry sector count : 0
Damaged sector count : 0

Track 07
Filename : /Users/jedi82/Downloads/rip/07 The XX - Shelter.flac

Track gain : -3.30 dB
Peak : 1.000000
CRC32 hash : C7C919ED
CRC32 hash (skip zero) : F31D0113
AccurateRip signature : 068AFD00
->Accurately ripped! (AR2, confidence 60)
Statistics
Read error : 0
Jitter error (maybe fixed) : 0
Retry sector count : 0
Damaged sector count : 0

Track 08
Filename : /Users/jedi82/Downloads/rip/08 The XX - Basic Space.flac

Track gain : -3.15 dB
Peak : 1.000000
CRC32 hash : 0998C0B5
CRC32 hash (skip zero) : C95F0AF1
AccurateRip signature : 0C6324CC
->Accurately ripped! (AR2, confidence 60)
Statistics
Read error : 0
Jitter error (maybe fixed) : 0
Retry sector count : 0
Damaged sector count : 0

Track 09
Filename : /Users/jedi82/Downloads/rip/09 The XX - Infinity.flac

Track gain : -5.50 dB
Peak : 1.000000
CRC32 hash : F6E79558
CRC32 hash (skip zero) : 80206DC8
AccurateRip signature : 0916001C
->Accurately ripped! (AR2, confidence 60)
Statistics
Read error : 0
Jitter error (maybe fixed) : 0
Retry sector count : 0
Damaged sector count : 0

Track 10
Filename : /Users/jedi82/Downloads/rip/10 The XX - Night Time.flac

Track gain : -4.18 dB
Peak : 1.000000
CRC32 hash : 27C40D7F
CRC32 hash (skip zero) : 8557D8FA
AccurateRip signature : 758A65FE
->Accurately ripped! (AR2, confidence 59)
Statistics
Read error : 0
Jitter error (maybe fixed) : 0
Retry sector count : 0
Damaged sector count : 0

Track 11
Filename : /Users/jedi82/Downloads/rip/11 The XX - Stars.flac
Pre-gap length : 00:03:25

Track gain : -2.97 dB
Peak : 1.000000
CRC32 hash : 20BD9561
CRC32 hash (skip zero) : C8C68D5E
AccurateRip signature : EF049077
->Accurately ripped! (AR2, confidence 59)
Statistics
Read error : 0
Jitter error (maybe fixed) : 0
Retry sector count : 0
Damaged sector count : 0

No errors occurred

End of status report



Finally, saved a flac copy of my album, i encoded this in mp3 with these settings for my iphone:



that's ok guys? dry.gif dry.gif dry.gif
Go to the top of the page
+Quote Post

Posts in this topic


Reply to this topicStart new topic
1 User(s) are reading this topic (1 Guests and 0 Anonymous Users)
0 Members:

 



RSS Lo-Fi Version Time is now: 20th December 2014 - 09:57