IPB

Welcome Guest ( Log In | Register )

Exact Audio Copy V1.0 beta 2, 24 May 2011
MrSinatra
post May 25 2011, 10:24
Post #1





Group: Members
Posts: 39
Joined: 11-June 10
Member No.: 81386



new EAC is out:

http://www.exactaudiocopy.de/en/index.php/...urces/download/
Go to the top of the page
+Quote Post
 
Start new topic
Replies
Gregory S. Chudo...
post May 27 2011, 22:49
Post #2





Group: Developer
Posts: 699
Joined: 2-October 08
From: Ottawa
Member No.: 59035



This shouldn't happen. At least it doesn't happen on my system, and CPU usage during extraction is close to zero with plugin enabled. Please recheck this, because the extraction speed can be quite random sometimes and can for example decrease if drive is overheated. If this still happens, please post more details, including extraction log etc.


--------------------
CUETools 2.1.4
Go to the top of the page
+Quote Post
RastaMan
post May 28 2011, 23:31
Post #3





Group: Members
Posts: 15
Joined: 6-May 11
Member No.: 90388



QUOTE (Gregory S. Chudov @ May 27 2011, 22:49) *
This shouldn't happen. At least it doesn't happen on my system, and CPU usage during extraction is close to zero with plugin enabled. Please recheck this, because the extraction speed can be quite random sometimes and can for example decrease if drive is overheated. If this still happens, please post more details, including extraction log etc.


Re-ripped the CD in question in EAC 1.0b2. Here's what the results look like with the audio processing plugin turned off

CODE
Exact Audio Copy V1.0 beta 2 from 29. April 2011

EAC extraction logfile from 28. May 2011, 11:43

Various Artists / Dirty Dancing

Used drive : MATSHITADVD/CDRW UJDA770 Adapter: 2 ID: 0

Read mode : Secure
Utilize accurate stream : Yes
Defeat audio cache : Yes
Make use of C2 pointers : No

Read offset correction : 102
Overread into Lead-In and Lead-Out : No
Fill up missing offset samples with silence : Yes
Delete leading and trailing silent blocks : No
Null samples used in CRC calculations : Yes
Used interface : Native Win32 interface for Win NT & 2000

Used output format : Internal WAV Routines
Sample format : 44.100 Hz; 16 Bit; Stereo


TOC of the extracted CD

Track | Start | Length | Start sector | End sector
---------------------------------------------------------
1 | 0:00.00 | 4:50.25 | 0 | 21774
2 | 4:50.25 | 2:39.57 | 21775 | 33756
3 | 7:30.07 | 3:52.68 | 33757 | 51224
4 | 11:23.00 | 4:08.32 | 51225 | 69856
5 | 15:31.32 | 1:35.55 | 69857 | 77036
6 | 17:07.12 | 3:17.38 | 77037 | 91849
7 | 20:24.50 | 3:01.57 | 91850 | 105481
8 | 23:26.32 | 2:23.65 | 105482 | 116271
9 | 25:50.22 | 3:41.03 | 116272 | 132849
10 | 29:31.25 | 2:54.20 | 132850 | 145919
11 | 32:25.45 | 4:01.00 | 145920 | 163994
12 | 36:26.45 | 3:05.45 | 163995 | 177914


Range status and errors

Selected range

Filename C:\Documents and Settings\All Users\My Documents\My Music\EAC\Various Artists - Dirty Dancing.wav

Peak level 100.0 %
Extraction speed 3.2 X
Range quality 99.9 %
Copy CRC EEA74A59
Copy OK

No errors occurred


AccurateRip summary

Track 1 accurately ripped (confidence 2) [C4F6C71E] (AR v2)
Track 2 accurately ripped (confidence 2) [9B1A81AC] (AR v2)
Track 3 accurately ripped (confidence 2) [C0609EC3] (AR v2)
Track 4 accurately ripped (confidence 2) [9CE660FE] (AR v2)
Track 5 accurately ripped (confidence 2) [D8C6F12D] (AR v2)
Track 6 accurately ripped (confidence 2) [046CB853] (AR v2)
Track 7 accurately ripped (confidence 2) [59DF9013] (AR v2)
Track 8 accurately ripped (confidence 2) [D7369F5C] (AR v2)
Track 9 accurately ripped (confidence 2) [0792F030] (AR v2)
Track 10 accurately ripped (confidence 2) [916DA399] (AR v2)
Track 11 accurately ripped (confidence 2) [CFDA6AFA] (AR v2)
Track 12 accurately ripped (confidence 2) [D8290942] (AR v2)

All tracks accurately ripped

End of status report



And here's what they look like with it turned on

CODE
Exact Audio Copy V1.0 beta 2 from 29. April 2011

EAC extraction logfile from 28. May 2011, 12:03

Various Artists / Dirty Dancing

Used drive : MATSHITADVD/CDRW UJDA770 Adapter: 2 ID: 0

Read mode : Secure
Utilize accurate stream : Yes
Defeat audio cache : Yes
Make use of C2 pointers : No

Read offset correction : 102
Overread into Lead-In and Lead-Out : No
Fill up missing offset samples with silence : Yes
Delete leading and trailing silent blocks : No
Null samples used in CRC calculations : Yes
Used interface : Native Win32 interface for Win NT & 2000

Used output format : Internal WAV Routines
Sample format : 44.100 Hz; 16 Bit; Stereo


TOC of the extracted CD

Track | Start | Length | Start sector | End sector
---------------------------------------------------------
1 | 0:00.00 | 4:50.25 | 0 | 21774
2 | 4:50.25 | 2:39.57 | 21775 | 33756
3 | 7:30.07 | 3:52.68 | 33757 | 51224
4 | 11:23.00 | 4:08.32 | 51225 | 69856
5 | 15:31.32 | 1:35.55 | 69857 | 77036
6 | 17:07.12 | 3:17.38 | 77037 | 91849
7 | 20:24.50 | 3:01.57 | 91850 | 105481
8 | 23:26.32 | 2:23.65 | 105482 | 116271
9 | 25:50.22 | 3:41.03 | 116272 | 132849
10 | 29:31.25 | 2:54.20 | 132850 | 145919
11 | 32:25.45 | 4:01.00 | 145920 | 163994
12 | 36:26.45 | 3:05.45 | 163995 | 177914


Range status and errors

Selected range

Filename C:\Documents and Settings\All Users\My Documents\My Music\EAC\Various Artists - Dirty Dancing.wav

Peak level 100.0 %
Extraction speed 2.3 X
Range quality 99.9 %
Copy CRC EEA74A59
Copy OK

No errors occurred


AccurateRip summary

Track 1 accurately ripped (confidence 2) [C4F6C71E] (AR v2)
Track 2 accurately ripped (confidence 2) [9B1A81AC] (AR v2)
Track 3 accurately ripped (confidence 2) [C0609EC3] (AR v2)
Track 4 accurately ripped (confidence 2) [9CE660FE] (AR v2)
Track 5 accurately ripped (confidence 2) [D8C6F12D] (AR v2)
Track 6 accurately ripped (confidence 2) [046CB853] (AR v2)
Track 7 accurately ripped (confidence 2) [59DF9013] (AR v2)
Track 8 accurately ripped (confidence 2) [D7369F5C] (AR v2)
Track 9 accurately ripped (confidence 2) [0792F030] (AR v2)
Track 10 accurately ripped (confidence 2) [916DA399] (AR v2)
Track 11 accurately ripped (confidence 2) [CFDA6AFA] (AR v2)
Track 12 accurately ripped (confidence 2) [D8290942] (AR v2)

All tracks accurately ripped

End of status report

---- CUETools DB Plugin V2.1.2

[CTDB TOCID: R4F5q.1FJGvPPGdhVJZfjkPws9g-] found, Submit result: R4F5q.1FJGvPPGdhVJZfjkPws9g- has been confirmed
[a44f5b0b] (112/112) Accurately ripped


As you can see, there is almost a 1.0x reduction in ripping speed when the audio processing plugin is turned on, which translates into the rip taking 6 - 7 minutes longer than it should.

Moderation: Codebox! It's the new black!

This post has been edited by Jens Rex: Jun 1 2011, 19:59
Go to the top of the page
+Quote Post

Posts in this topic
- MrSinatra   Exact Audio Copy V1.0 beta 2   May 25 2011, 10:24
- - Synthetic Soul   Ooh, plug-ins.   May 26 2011, 18:49
- - Gregory S. Chudov   Plugins are good. I love plugins. Here's a plu...   May 26 2011, 19:35
|- - marc2003   QUOTE (Gregory S. Chudov @ May 26 2011, 19...   May 28 2011, 10:42
- - hlloyge   Gregory, I see only Cuetools DB plugin, is that OK...   May 26 2011, 20:14
- - Gregory S. Chudov   There's a button on the toolbar whose tooltip ...   May 26 2011, 20:27
- - hlloyge   Oh yeah... I thought there are two independent pl...   May 27 2011, 07:51
- - RastaMan   I found that having the audio processing plugin en...   May 27 2011, 18:09
- - Gregory S. Chudov   This shouldn't happen. At least it doesn't...   May 27 2011, 22:49
|- - RastaMan   QUOTE (Gregory S. Chudov @ May 27 2011, 22...   May 28 2011, 23:31
|- - netant   QUOTE (RastaMan @ May 29 2011, 04:01) Re-...   Jul 9 2011, 18:38
- - hlloyge   Well, I like the ability to get data from Musicbra...   May 28 2011, 10:22
|- - Eli   QUOTE (hlloyge @ May 28 2011, 05:22) Well...   Jun 2 2011, 01:12
- - Gregory S. Chudov   Thanks. I reduced connection timeout to 15 second...   May 28 2011, 15:57
- - Remedial Sound   Will installing this new beta cause all settings/p...   May 30 2011, 15:43
- - hlloyge   Yeah. You will have to recreate filename presets, ...   May 30 2011, 16:37
- - MrSinatra   i'd like to see more free sources added. i...   Jun 2 2011, 05:00
- - rectangle   Don't know if this is the right place but I ju...   Jun 25 2011, 02:19
- - db1989   Thanks for your report; the error will be amended....   Jun 25 2011, 02:34
- - Jebus   I'd really like to see EAC fix the long-standi...   Jun 30 2011, 17:31
- - ghost note   Could it be, that the release itself wasn't th...   Jul 3 2011, 08:30
- - netant   thanks for the info   Jul 8 2011, 13:07
- - exec   I have another problem after updating to beta 2: I...   Aug 30 2011, 13:13
- - bilbo   QUOTE (exec @ Aug 30 2011, 07:13) Are bet...   Sep 1 2011, 04:29
- - exec   QUOTE (bilbo @ Sep 1 2011, 05:29) QUOTE (...   Sep 2 2011, 13:28


Reply to this topicStart new topic
1 User(s) are reading this topic (1 Guests and 0 Anonymous Users)
0 Members:

 



RSS Lo-Fi Version Time is now: 19th September 2014 - 18:51