IPB

Welcome Guest ( Log In | Register )

APE+CUE, How to split?
katoblepa
post Sep 16 2007, 19:49
Post #1





Group: Members
Posts: 59
Joined: 16-May 07
Member No.: 43521



Hi!
I have downloaded a .APE file of about 400mb with the related cue.
What to use to split it in different traks?

Normally I use EAC to rip mi cds but i did not found an option to manage this problem.

What do you suggest?

Thanks

Giorgio
Go to the top of the page
+Quote Post
 
Start new topic
Replies
chrome_waves
post Jan 24 2010, 16:00
Post #2





Group: Members
Posts: 76
Joined: 28-November 05
Member No.: 26073



what about using cue splitter? it splits the large ape file into the individual tracks in unchanged .ape format. or did someone recommend this and i missed it? its never failed me yet, useful if you dont want to convert the .ape to other formats.
Go to the top of the page
+Quote Post
kisli
post Jan 24 2010, 16:16
Post #3





Group: Members
Posts: 38
Joined: 16-December 08
Member No.: 64564



QUOTE (chrome_waves @ Jan 24 2010, 16:00) *
what about using cue splitter? it splits the large ape file into the individual tracks in unchanged .ape format. or did someone recommend this and i missed it? its never failed me yet, useful if you dont want to convert the .ape to other formats.


Medieval cue splitter? Nobody recommends that because it is crapware.
If you're talking about CueTools (or any proper splitting tool), it does do decoding->splitting->encoding.

Go to the top of the page
+Quote Post
Zarggg
post Jan 24 2010, 21:58
Post #4





Group: Members
Posts: 556
Joined: 18-January 04
From: bethlehem.pa.us
Member No.: 11318



QUOTE (kisli @ Jan 24 2010, 10:16) *
Medieval cue splitter? Nobody recommends that because it is crapware.

Actually, I use it, and it works just fine.
Go to the top of the page
+Quote Post
kisli
post Jan 25 2010, 15:26
Post #5





Group: Members
Posts: 38
Joined: 16-December 08
Member No.: 64564



QUOTE (Zarggg @ Jan 24 2010, 21:58) *
QUOTE (kisli @ Jan 24 2010, 10:16) *
Medieval cue splitter? Nobody recommends that because it is crapware.

Actually, I use it, and it works just fine.


OK
I've ripped a cd to image w/ EAC.
CODE
Exact Audio Copy V0.99 prebeta 4 from 23. January 2008

EAC extraction logfile from 25. January 2010, 14:24

NoMeansNo / No One

Used drive : Optiarc DVD RW AD-5200A Adapter: 0 ID: 0

Read mode : Burst

Read offset correction : 48
Overread into Lead-In and Lead-Out : No
Fill up missing offset samples with silence : Yes
Delete leading and trailing silent blocks : No
Null samples used in CRC calculations : No
Used interface : Native Win32 interface for Win NT & 2000

Used output format : User Defined Encoder
Selected bitrate : 768 kBit/s
Quality : High
Add ID3 tag : No
Command line compressor : C:\Program Files\FLAC\flac.exe
Additional command line options : -8 -V -T "ARTIST=%a" -T "TITLE=%t" -T "ALBUM=%g" -T "DATE=%y" -T "TRACKNUMBER=%n" -T "GENRE=%m" -T "COMMENT=%e" %s -o %d


TOC of the extracted CD

Track | Start | Length | Start sector | End sector
---------------------------------------------------------
1 | 0:00.00 | 6:00.73 | 0 | 27072
2 | 6:00.73 | 6:13.72 | 27073 | 55119
3 | 12:14.70 | 8:02.44 | 55120 | 91313
4 | 20:17.39 | 8:48.68 | 91314 | 130981
5 | 29:06.32 | 6:20.44 | 130982 | 159525
6 | 35:27.01 | 8:40.58 | 159526 | 198583
7 | 44:07.59 | 15:03.30 | 198584 | 266338
8 | 59:11.14 | 3:57.44 | 266339 | 284157


Range status and errors

Selected range

Filename D:\MyDocs\EAC\NoMeansNo - No One\NoMeansNo - No One.wav

Timing problem 0:00:03
Timing problem 0:01:21
Timing problem 0:04:13
Timing problem 0:05:39
Timing problem 0:10:29
Timing problem 0:17:44
Timing problem 0:23:47
Timing problem 0:24:46
Timing problem 0:45:07
Timing problem 0:50:34

Peak level 99.7 %
Copy CRC C85436E0
Copy finished

No errors occurred


AccurateRip summary

Track 1 accurately ripped (confidence 7) [BF7D9B4F]
Track 2 accurately ripped (confidence 7) [44D37ABD]
Track 3 accurately ripped (confidence 7) [BFB1DBF2]
Track 4 accurately ripped (confidence 7) [014D4E73]
Track 5 accurately ripped (confidence 7) [F156A23D]
Track 6 accurately ripped (confidence 7) [9AA219E7]
Track 7 accurately ripped (confidence 6) [FAE32D22]
Track 8 accurately ripped (confidence 6) [6339246E]

All tracks accurately ripped

End of status report



I've split the image in 3 different ways, Medieval, Cuetools, FB2K's coverter

So far, all good.
Then I used FB2K's File Integrity Verifier to check AccurateRip of split files:

CueTools


FB2k


And Medieval:


Bit-comparing split tracks:


Not surprisingly, FB2K, Cuetools and image files match bit for bit

Not so with Medieval:


Also, do you notice anything strange in medieval's cuesheet?
CODE
;
;--[ Created by Medieval CUE Splitter! ]--
;
;-----------[ www.medieval.it ]-----------
;
REM GENRE Rock
REM DATE 2000
REM DISCID 710ECC08
REM COMMENT "ExactAudioCopy v0.99pb4"
TITLE "No One"
PERFORMER NoMeansNo
FILE "(01) [NoMeansNo] The Graveyard Shift.flac" WAVE
TRACK 01 AUDIO
TITLE "The Graveyard Shift"
PERFORMER NoMeansNo
INDEX 01 00:00:00
FILE "(02) [NoMeansNo] Under The Sea.flac" WAVE
TRACK 02 AUDIO
TITLE "Under The Sea"
PERFORMER NoMeansNo
INDEX 00 00:00:00
INDEX 01 00:02:00
FILE "(03) [NoMeansNo] Our Town.flac" WAVE
TRACK 03 AUDIO
TITLE "Our Town"
PERFORMER NoMeansNo
INDEX 00 00:00:00
INDEX 01 00:02:00
FILE "(04) [NoMeansNo] A Little Too High.flac" WAVE
TRACK 04 AUDIO
TITLE "A Little Too High"
PERFORMER NoMeansNo
INDEX 00 00:00:00
INDEX 01 00:02:00
FILE "(05) [NoMeansNo] Hello - Goodbye.flac" WAVE
TRACK 05 AUDIO
TITLE "Hello / Goodbye"
PERFORMER NoMeansNo
INDEX 00 00:00:00
INDEX 01 00:02:00
FILE "(06) [NoMeansNo] The Phone Call.flac" WAVE
TRACK 06 AUDIO
TITLE "The Phone Call"
PERFORMER NoMeansNo
INDEX 00 00:00:00
INDEX 01 00:02:00
FILE "(07) [NoMeansNo] Bitch's Brew.flac" WAVE
TRACK 07 AUDIO
TITLE "Bitch's Brew"
PERFORMER NoMeansNo
INDEX 00 00:00:00
INDEX 01 00:02:00
FILE "(08) [NoMeansNo] Beat On The Brat.flac" WAVE
TRACK 08 AUDIO
TITLE "Beat On The Brat"
PERFORMER NoMeansNo
INDEX 00 00:00:00
INDEX 01 00:02:00


Another error introduced by Medieval:



And some good news.


Go to the top of the page
+Quote Post

Posts in this topic
- katoblepa   APE+CUE   Sep 16 2007, 19:49
- - Synthetic Soul   I'm going to assume that this was a legal down...   Sep 16 2007, 20:21
|- - katoblepa   QUOTE (Synthetic Soul @ Sep 16 2007, 13:2...   Sep 17 2007, 11:37
- - Borbus   foobar2000 can split it for you by loading the cue...   Sep 17 2007, 12:03
|- - katoblepa   QUOTE (Borbus @ Sep 17 2007, 05:03) fooba...   Sep 17 2007, 15:17
- - Synthetic Soul   foobar does not need any additional components to ...   Sep 17 2007, 16:03
|- - katoblepa   QUOTE (Synthetic Soul @ Sep 17 2007, 09:0...   Sep 17 2007, 16:35
|- - katoblepa   QUOTE (Synthetic Soul @ Sep 17 2007, 09:0...   Oct 23 2007, 16:19
|- - Synthetic Soul   QUOTE (katoblepa @ Oct 23 2007, 16:19) Bu...   Oct 23 2007, 16:43
||- - katoblepa   QUOTE (Synthetic Soul @ Oct 23 2007, 09:4...   Nov 4 2007, 22:30
|- - ech3   QUOTE (katoblepa @ Oct 23 2007, 15:19) PE...   Oct 23 2007, 23:14
- - DotNoir   I didn't find Café Del Mar CDs sold as downloa...   Oct 23 2007, 23:34
|- - ech3   QUOTE (DotNoir @ Oct 23 2007, 22:34) I di...   Oct 24 2007, 12:44
- - Synthetic Soul   Use the "..." button to point foobar to ...   Nov 5 2007, 08:16
|- - Rucksacksepp   QUOTE (Synthetic Soul @ Nov 4 2007, 23:16...   May 5 2009, 21:03
|- - gism   QUOTE (Synthetic Soul @ Nov 5 2007, 08:16...   Jan 18 2010, 10:28
|- - Dynamic   QUOTE (gism @ Jan 18 2010, 09:28) I have ...   Jan 18 2010, 23:36
- - chrome_waves   what about using cue splitter? it splits the large...   Jan 24 2010, 16:00
|- - kisli   QUOTE (chrome_waves @ Jan 24 2010, 16:00)...   Jan 24 2010, 16:16
|- - Zarggg   QUOTE (kisli @ Jan 24 2010, 10:16) Mediev...   Jan 24 2010, 21:58
|- - kisli   QUOTE (Zarggg @ Jan 24 2010, 21:58) QUOTE...   Jan 25 2010, 15:26
- - chrome_waves   kisli, yeah thats the program i meant, i didnt rea...   Jan 24 2010, 16:25
- - greynol   As an example, from what I recall, it would discar...   Jan 24 2010, 17:29


Reply to this topicStart new topic
1 User(s) are reading this topic (1 Guests and 0 Anonymous Users)
0 Members:

 



RSS Lo-Fi Version Time is now: 23rd September 2014 - 01:43