IPB

Welcome Guest ( Log In | Register )

single .ape file missing cuesheet
prima1
post Oct 28 2006, 13:27
Post #1





Group: Members
Posts: 18
Joined: 7-October 06
Member No.: 36060



hi
i have a single .ape file (entire album) but i don't have the cuesheet to go with it and its not tagged
i used freedb2.org and freedb2cue to generate .cue file by saving the cdinfo from freedb2.org as a text file and uploading to freedb2cue
the thing is freedb2.org has 2 entries for the same albume the DISCID is the same for both but the track lengthes are a little different
here are the 2 cuesheets generated

CODE
TITLE "John Williams / Romance of the Guitar"
FILE "Romance of the Guitar.ape" WAVE
  TRACK 01 AUDIO
    TITLE "Romance"
    INDEX 01 00:00:00
  TRACK 02 AUDIO
    TITLE "Pavane (Faure)"
    INDEX 01 03:21:27
  TRACK 03 AUDIO
    TITLE "Sunburst (York)"
    INDEX 01 08:29:70
  TRACK 04 AUDIO
    TITLE "Una limosna por el amor de Dios (Barrios)"
    INDEX 01 12:06:22
  TRACK 05 AUDIO
    TITLE "Asturias (Albeniz)"
    INDEX 01 15:36:12
  TRACK 06 AUDIO
    TITLE "Gymnopedie no. 3 (Satie)"
    INDEX 01 21:39:00
  TRACK 07 AUDIO
    TITLE "El condor pasa (Simon)"
    INDEX 01 24:10:42
  TRACK 08 AUDIO
    TITLE "Cavatina from the Deer Hunter (Myers)"
    INDEX 01 28:00:45
  TRACK 09 AUDIO
    TITLE "Verano porteno (Piazzolla)"
    INDEX 01 31:12:02
  TRACK 10 AUDIO
    TITLE "Scherzino mexicano (Ponce)"
    INDEX 01 35:57:35
  TRACK 11 AUDIO
    TITLE "Berceuse (Brouwer)"
    INDEX 01 38:29:62
  TRACK 12 AUDIO
    TITLE "Natalia (Lauro)"
    INDEX 01 42:25:30
  TRACK 13 AUDIO
    TITLE "Dance from La Vida Breve (Falla)"
    INDEX 01 45:16:37
  TRACK 14 AUDIO
    TITLE "Planxty Madame Maxwell (O'Carolan)"
    INDEX 01 48:39:45
  TRACK 15 AUDIO
    TITLE "Epitafios 3 (Theodorakis)"
    INDEX 01 50:32:47
  TRACK 16 AUDIO
    TITLE "Prelude from Lute Suite No. 4 (J. S. Bach)"
    INDEX 01 54:07:50
  TRACK 17 AUDIO
    TITLE "Sonata in E Major (Scarlatti)"
    INDEX 01 58:29:12
  TRACK 18 AUDIO
    TITLE "III. Allegro (Vivaldi)"
    INDEX 01 62:39:00
  TRACK 19 AUDIO
    TITLE "Adagio from Concierto de Aranjuez (Rodrigo)"
    INDEX 01 64:48:50


CODE
TITLE "John Williams / Romance of the Guitar"
FILE "Romance of The Guitar.ape" WAVE
  TRACK 01 AUDIO
    TITLE "Romance"
    INDEX 01 00:00:00
  TRACK 02 AUDIO
    TITLE "Faure - Pavane"
    INDEX 01 03:21:29
  TRACK 03 AUDIO
    TITLE "York - Sunburst"
    INDEX 01 08:29:71
  TRACK 04 AUDIO
    TITLE "Barrios - Una Limosna Por El Amor De Dios"
    INDEX 01 12:06:24
  TRACK 05 AUDIO
    TITLE "Albeniz - Asturias"
    INDEX 01 15:36:14
  TRACK 06 AUDIO
    TITLE "Satie - Gymnopedie No. 3"
    INDEX 01 21:39:01
  TRACK 07 AUDIO
    TITLE "Simon - El Condor Pasa"
    INDEX 01 24:10:44
  TRACK 08 AUDIO
    TITLE "Myers - Cavatina From The Deer Hunter"
    INDEX 01 28:00:45
  TRACK 09 AUDIO
    TITLE "Piazzolla - Verano Porteno"
    INDEX 01 31:12:03
  TRACK 10 AUDIO
    TITLE "Ponce - Scherzino Mexicano"
    INDEX 01 35:57:37
  TRACK 11 AUDIO
    TITLE "Brouwer - Berceuse"
    INDEX 01 38:29:63
  TRACK 12 AUDIO
    TITLE "Lauro - Natalia"
    INDEX 01 42:25:32
  TRACK 13 AUDIO
    TITLE "Falla - Dance From La Vida Breve"
    INDEX 01 45:16:39
  TRACK 14 AUDIO
    TITLE "O'Carolan - Planxty Madame Maxwell"
    INDEX 01 48:39:47
  TRACK 15 AUDIO
    TITLE "Theodorakis - Epitafios"
    INDEX 01 50:32:49
  TRACK 16 AUDIO
    TITLE "J. S. Bach - Prelude From Lute Suite No. 4"
    INDEX 01 54:07:50
  TRACK 17 AUDIO
    TITLE "Scarlatti - Sonata In E Major"
    INDEX 01 58:29:13
  TRACK 18 AUDIO
    TITLE "Vivaldi - III. Allegro"
    INDEX 01 62:39:01
  TRACK 19 AUDIO
    TITLE "Rodrigo - Adagio From Concierto De Aranjuez"
    INDEX 01 64:48:51


so now how do i know which cue file is the correct (or the better) one to use
i listened to the songs using both .cue files in foobar it doesn't seem like a song started with the previous song last bits of music or something

is there a way to know which is the better .cue? or does it even matter?
also is there a better way to generate a .cue for my file?

thanks
Go to the top of the page
+Quote Post

Posts in this topic


Reply to this topicStart new topic
1 User(s) are reading this topic (1 Guests and 0 Anonymous Users)
0 Members:

 



RSS Lo-Fi Version Time is now: 25th December 2014 - 06:13