IPB

Welcome Guest ( Log In | Register )

 
Reply to this topicStart new topic
Linux Cue Sheet Tool for Multiple FLAC Files
meatballs
post Dec 6 2005, 12:35
Post #1





Group: Members
Posts: 2
Joined: 6-December 05
Member No.: 26247



Hi,

I have slimserver setup on a machine which also runs abcde as a ripping and encoding service. It all works fine, but I'd also like to use abcde to create the cue files.

Does anybody know a linux tool that can do that for me? I've looked at mkcue and cuegen, but they both seem geared up to single flac files per album.

At the moment, I'm using EAC on a separate windows machine to create the files after the CD has been ripped/encoded. It works, but it would be great to get abcde to do the work for me!!

meatballs

This post has been edited by meatballs: Dec 6 2005, 12:47
Go to the top of the page
+Quote Post
shnutils
post Dec 7 2005, 16:39
Post #2





Group: Members
Posts: 50
Joined: 5-May 04
From: VA
Member No.: 13908



You can use shntool's cue mode:

CODE
% shntool cue -c *.flac
FILE "joined.wav" WAVE
 TRACK 01 AUDIO
   INDEX 01 0:00:00
 TRACK 02 AUDIO
   INDEX 01 0:49:03
 TRACK 03 AUDIO
   INDEX 01 3:56:59
 TRACK 04 AUDIO
   INDEX 01 7:27:02
 TRACK 05 AUDIO
   INDEX 01 11:27:37
 TRACK 06 AUDIO
   INDEX 01 14:04:09
 TRACK 07 AUDIO
   INDEX 01 21:09:06
 TRACK 08 AUDIO
   INDEX 01 25:43:70
 TRACK 09 AUDIO
   INDEX 01 30:26:17
 TRACK 10 AUDIO
   INDEX 01 35:46:06
 TRACK 11 AUDIO
   INDEX 01 42:29:31


Original files:

CODE
shntool len *.flac
   length     expanded size   cdr  WAVE problems filename
    0:49.03        8650700    ---   --   ---xx   Track01.flac
    3:07.56       33118556    ---   --   ---xx   Track02.flac
    3:30.18       37086380    ---   --   ---xx   Track03.flac
    4:00.35       42418364    ---   --   ---xx   Track04.flac
    2:36.47       27628988    ---   --   ---xx   Track05.flac
    7:04.72       74962988    ---   --   ---xx   Track06.flac
    4:34.64       48484172    ---   --   ---xx   Track07.flac
    4:42.22       49796588    ---   --   ---xx   Track08.flac
    5:19.64       56422172    ---   --   ---xx   Track09.flac
    6:43.25       71148044    ---   --   ---xx   Track10.flac
    4:09.59       44062412    ---   --   ---xx   Track11.flac
   46:39.15      493779364 B                     (totals for 11 files, 0.4894 overall compression ratio)
Go to the top of the page
+Quote Post
meatballs
post Dec 8 2005, 11:05
Post #3





Group: Members
Posts: 2
Joined: 6-December 05
Member No.: 26247



OK, many thanks. I've not heard of this tool before, so I'll give it a go.
Go to the top of the page
+Quote Post
xmixahlx
post Dec 8 2005, 21:24
Post #4





Group: Members
Posts: 1394
Joined: 20-December 01
From: seattle
Member No.: 693



shntool is to lossless as sox is to random-ass audio formats smile.gif

no, really - it roxxers - i use fix/join/split/cat/conv all the time


later


--------------------
RareWares/Debian :: http://www.rarewares.org/debian.html
Go to the top of the page
+Quote Post

Reply to this topicStart new topic
1 User(s) are reading this topic (1 Guests and 0 Anonymous Users)
0 Members:

 



RSS Lo-Fi Version Time is now: 23rd July 2014 - 23:00