IPB

Welcome Guest ( Log In | Register )

> foobar2000 General Forum Rules

This is NOT a tech support forum.
Tech support questions go to foobar2000 Tech Support forum instead.

See also: Hydrogenaudio Terms of Service.

 
Reply to this topicStart new topic
problem with cue-sheet & fb2k, fb2k displays tracklist wrong
vries085
post Apr 11 2005, 19:02
Post #1





Group: Members
Posts: 5
Joined: 11-April 05
Member No.: 21378



I've got a problem with fb2k when reading cus-sheets wich acttually have entries of one adiofile per song, something like (let's say the cue-sheet contains 3 songs):

PERFORMER "2002"
TITLE "2002 Sacred Well"
FILE "01 Stardust.mp3" MP3
TITLE "Stardust"
TRACK 01 AUDIO
INDEX 01 00:00:00
FILE "02 City of Peace.mp3" MP3
TITLE "City of Peace"
TRACK 02 AUDIO
INDEX 01 00:00:00
FILE "03 Lovers' Bridge.mp3" MP3
TITLE "Lovers' Bridge"
TRACK 03 AUDIO
INDEX 01 00:00:00

when I open this cue sheet in fb2k, it displays the tracklist as follows:
01. 2002 - [2002 Sacred Well #01] City of Peace [4:32]
02. 2002 - [2002 Sacred Well #02] Lovers' Bridge [4:31]
03. 2002 - 2002.cue [4:27]

The first title is missing, all other titles are moved up one place, and the last title is not recognized.

Does anyone have a clue for this behaviour (and possibly to solve it)???
Go to the top of the page
+Quote Post
Gambit
post Apr 11 2005, 20:45
Post #2


Burrrn developer


Group: Developer
Posts: 917
Joined: 25-November 01
From: Bratislava, Slovakia
Member No.: 534



Your cue sheet is broken.

The TRACK and TITLE fields are swapped. It should look like this:

CODE
PERFORMER "2002"
TITLE "2002 Sacred Well"
FILE "01 Stardust.mp3" MP3
 TRACK 01 AUDIO
   TITLE "Stardust"
   INDEX 01 00:00:00
FILE "02 City of Peace.mp3" MP3
 TRACK 02 AUDIO
   TITLE "City of Peace"
   INDEX 01 00:00:00


And so on...

How did you create that cue sheet?


--------------------
Burrrn - http://www.burrrn.net/
MPEG Audio Collection - http://mac.sourceforge.net/
Go to the top of the page
+Quote Post
vries085
post Apr 12 2005, 05:43
Post #3





Group: Members
Posts: 5
Joined: 11-April 05
Member No.: 21378



I generated the CUE-sheet myself, based on a the files in a directory.
It's an action to use only one type of file (.cue) for entries in the database.

I tried it this afternoon, and it works perfect!!
Thanks
Fred

QUOTE (Gambit @ Apr 11 2005, 09:45 PM)
Your cue sheet is broken.

The TRACK and TITLE fields are swapped. It should look like this:

CODE
PERFORMER "2002"
TITLE "2002 Sacred Well"
FILE "01 Stardust.mp3" MP3
 TRACK 01 AUDIO
   TITLE "Stardust"
   INDEX 01 00:00:00
FILE "02 City of Peace.mp3" MP3
 TRACK 02 AUDIO
   TITLE "City of Peace"
   INDEX 01 00:00:00


And so on...

How did you create that cue sheet?
*


This post has been edited by vries085: Apr 12 2005, 18:46
Go to the top of the page
+Quote Post

Reply to this topicStart new topic
1 User(s) are reading this topic (1 Guests and 0 Anonymous Users)
0 Members:

 



RSS Lo-Fi Version Time is now: 26th December 2014 - 20:29