IPB

Welcome Guest ( Log In | Register )

Burning Compressed Cue Sheet, Burning Compressed Cue Sheet
ponchorage
post May 19 2004, 20:19
Post #1





Group: Members
Posts: 509
Joined: 26-February 04
From: S.F., Utah
Member No.: 12282



Is there a way to burn a compressed cue sheet? I get an error when trying to load the cue sheet in EAC:

Error in CUE sheet !
File type is not supported in line 3

Line 3 reads:

FILE "Vertical Horizon - Everything You Want.mpc" WAVE

I also tried to load the cue in Daemon Tools and I get a similar error. I know that I could just covert the mpc to a wave, but I'd rather skip that step if possible. I'd like to store my Cds as compressed mpc cue sheets with accompanying mpc files. If I ever need to burn a copy, I'd like to be able to do so directly from the cue.
Go to the top of the page
+Quote Post
 
Start new topic
Replies
Jonostra
post Mar 14 2009, 12:37
Post #2





Group: Members
Posts: 3
Joined: 14-March 09
Member No.: 67945



/bump

I am having the same problem.. When I (with EAC) trying to write the CD, and trying to open a CUE I get the following error:

"Error in CUE sheet !"
"INDEX position is behind end of FILE in line 16"

I can understand if the ripper did something which he was not supposed to do if he'd still want to be able to burn it in EAC, but is there a way Now to see the gap settings on the existing files? (so I might be able to edit this CUE to the proper numbers myself)

CODE
REM GENRE Soundtrack
REM DATE 1989
REM DISCID AD0C060D
REM COMMENT "ExactAudioCopy v0.95b3"
PERFORMER "Maurice Jarre"
TITLE "Lawrence Of Arabia"
FILE "Maurice Jarre - Lawrence Of Arabia\01 01 Overture.wav" WAVE
TRACK 01 AUDIO
TITLE "Overture"
PERFORMER "Maurice Jarre"
INDEX 01 00:00:00
TRACK 02 AUDIO
TITLE "Main Titles"
PERFORMER "Maurice Jarre"
INDEX 00 04:23:70
INDEX 01 04:25:55
TRACK 03 AUDIO
TITLE "First Entrance To The Desert/Night And Stars/Lawrence And Tafas"
PERFORMER "Maurice Jarre"
INDEX 00 06:38:45
INDEX 01 06:41:30
TRACK 04 AUDIO
TITLE "Miracle"
PERFORMER "Maurice Jarre"
INDEX 00 16:18:27
INDEX 01 16:21:12
TRACK 05 AUDIO
TITLE "That Is The Desert"
PERFORMER "Maurice Jarre"
INDEX 00 18:48:60
INDEX 01 18:51:27
TRACK 06 AUDIO
TITLE "Nefud Mirage/The Sun's Anvil"
PERFORMER "Maurice Jarre"
INDEX 00 21:43:02
INDEX 01 21:43:57
TRACK 07 AUDIO
TITLE "The Rescue Of Gasim/Bringing Gasim Into Camp"
PERFORMER "Maurice Jarre"
INDEX 00 27:07:22
INDEX 01 27:10:00
TRACK 08 AUDIO
TITLE "Arrival At Auda's Camp"
PERFORMER "Maurice Jarre"
INDEX 00 31:17:27
INDEX 01 31:19:62
TRACK 09 AUDIO
TITLE "On To Akaba/The Beach At Night"
PERFORMER "Maurice Jarre"
INDEX 00 33:29:52
INDEX 01 33:32:22
TRACK 10 AUDIO
TITLE "Sinai Desert"
PERFORMER "Maurice Jarre"
INDEX 00 38:12:60
INDEX 01 38:15:47
TRACK 11 AUDIO
TITLE "The Voice Of The Guns"
PERFORMER "Maurice Jarre"
INDEX 00 39:21:50
INDEX 01 39:24:30
TRACK 12 AUDIO
TITLE "Horse Stampede/Ali Rescues Lawrence/Lawrence And His Bodyguard"
PERFORMER "Maurice Jarre"
INDEX 00 41:26:02
INDEX 01 41:26:50
TRACK 13 AUDIO
TITLE "The End/Playoff Music"
PERFORMER "Maurice Jarre"
INDEX 00 46:41:57
INDEX 01 46:44:00

Go to the top of the page
+Quote Post

Posts in this topic


Closed TopicStart new topic
1 User(s) are reading this topic (1 Guests and 0 Anonymous Users)
0 Members:

 



RSS Lo-Fi Version Time is now: 23rd July 2014 - 05:59