IPB

Welcome Guest ( Log In | Register )

 
Reply to this topicStart new topic
Burning an enhanced CD with a pre-gap track
fašade
post Jun 24 2013, 01:25
Post #1





Group: Members
Posts: 4
Joined: 23-March 13
Member No.: 107358



I'm trying to burn an audio CD with enhanced content, as well as a hidden track in the pre-gap, but I've run into a few issues.

The software I'm using for burning the audio session is Exact Audio Copy. For the data session, I'm using CDBurnerXP. I'm doing this on Windows XP SP3. The CD burner, as listed in EAC, is SAMSUNG CD-R/RW SW-248F R602 Adapter: 0 ID: 1

A few nights ago, I was able to successfully burn a CD-R with the audio session in EAC (and setting the disc to remain open, which I believe is the correct option) and then burning the ISO as a separate session with CDBurnerXP. This appeared to work; it said all went well and closed out. The CD-R's icon in Windows Explorer now shows as the Audio CD+ icon or whatever it's called, like the enhanced CD album View-Monster by Lemon Demon that I own. However, when I clicked on it, I was only able to view the CDA files rather than the folder with the enhanced content. Another issue that arose here is that on my first few tries, EAC would get to the second track (on the first try) and then the fifteenth/last (on the second try) and give an error (Illegal mode for track), rendering the CD-R unusable.

Today, I decided to give it another shot. However, today I was given the error every single time (I tried three times) not long after the lead-in is burned. As far as I'm aware, I'm using the same settings as before.

Here is my cue sheet:
CODE
FILE "Q:\Own Music\summersounds\Mixdown\album.wav" WAVE
  TRACK 01 AUDIO
    FLAGS DCP
    INDEX 00 00:00:00
    INDEX 01 03:33:00
  TRACK 02 AUDIO
    FLAGS DCP
    INDEX 01 08:44:00
  TRACK 03 AUDIO
    FLAGS DCP
    INDEX 01 11:51:00
  TRACK 04 AUDIO
    FLAGS DCP
    INDEX 01 15:59:00
  TRACK 05 AUDIO
    FLAGS DCP
    INDEX 01 17:04:00
  TRACK 06 AUDIO
    FLAGS DCP
    INDEX 01 18:30:00
  TRACK 07 AUDIO
    FLAGS DCP
    INDEX 01 20:34:00
  TRACK 08 AUDIO
    FLAGS DCP
    INDEX 01 25:00:00
  TRACK 09 AUDIO
    FLAGS DCP
    INDEX 01 28:30:00
  TRACK 10 AUDIO
    FLAGS DCP
    INDEX 01 31:08:00
  TRACK 11 AUDIO
    FLAGS DCP
    INDEX 01 33:44:00
  TRACK 12 AUDIO
    FLAGS DCP
    INDEX 01 39:47:00
  TRACK 13 AUDIO
    FLAGS DCP
    INDEX 01 44:06:00
  TRACK 14 AUDIO
    FLAGS DCP
    INDEX 01 46:24:00
  TRACK 15 AUDIO
    FLAGS DCP
    INDEX 01 49:48:00


What am I doing wrong, and how can I get this to properly burn? I need to burn it on 50 CD-Rs (and I don't have any spares of the type I need to burn it onto) and need to make sure I have a reliable method for doing so.

Thanks.
Go to the top of the page
+Quote Post

Reply to this topicStart new topic
1 User(s) are reading this topic (1 Guests and 0 Anonymous Users)
0 Members:

 



RSS Lo-Fi Version Time is now: 28th August 2014 - 09:47