IPB

Welcome Guest ( Log In | Register )

103 Pages V  « < 81 82 83 84 85 > »   
Reply to this topicStart new topic
CUETools versions 1.9.5 through 2.1.5 (current), AccurateRip support & more
Porcus
post Nov 23 2012, 23:02
Post #2051





Group: Members
Posts: 1920
Joined: 30-November 06
Member No.: 38207



Gregory, you may consider this:

I have an album with a corrupted track. CUETools does identify the correct album though (the CTDB and AR symbols at the bottom light up with fairly high numbers), I guess the headers of the .flac show the length that should have been but the verification aborts, and prevents verification of the remaining tracks.


--------------------
One day in the Year of the Fox came a time remembered well
Go to the top of the page
+Quote Post
SpaceAgeHero
post Nov 28 2012, 07:50
Post #2052





Group: Members
Posts: 119
Joined: 23-August 08
From: Berlin
Member No.: 57417



Hello,

I have a question (or feature request) regarding CUETools ability to analyze EAC logfiles.

Since CUETools is able to match CRC values from logfiles as calculated by EAC against the actual existing audio data (either as complete image or single tracks), is it possible to validate both Image CRC and Track CRCs at the same time?
This would require CUETools to analyze at least two logfiles for one disc/image (maybe based on this file naming scheme?):

QUOTE
"Awesome Album Title.flac"
"Awesome Album Title (Image).log"
"Awesome Album Title (Tracks).log"


The goal would be to have CUETools generate an .accurip logfile with a complete overview:

CODE
Track Peak [ CRC32  ] [W/O NULL] [  LOG   ]
--  100.0 [D78D3B12] [E33CA45B]        OK
01  100.0 [5C6B629A] [2CEB2478]        OK
02  100.0 [2143D219] [C1819E6C]        OK
03   99.1 [131CA7DD] [8C89D7FA]        OK
04  100.0 [11C6AFAB] [CDC171C9]        OK
05  100.0 [63CFFACD] [9D25555F]        OK
06  100.0 [E4806D30] [864D8C0F]        OK
07  100.0 [CA68015C] [D2912A94]        OK
08  100.0 [1205D4C4] [FD47E5D7]        OK


Is this already possible somehow? If not, please consider this as a feature request. :-)

Also I'm considering to get myself a Mac. Are XLD logfiles supported already?

Thanks!!!
Go to the top of the page
+Quote Post
korth
post Nov 28 2012, 16:04
Post #2053





Group: Members
Posts: 446
Joined: 13-March 11
Member No.: 88969



CUETools only verifies one rip at a time. Your request would require using logs from two different rips (one from an 'image' rip and one from a 'tracks' rip) and combine them into a single verification. I don't see Gregory adding this feature but you never know.
The XLD log request has been made before but not supported yet.


--------------------
korth
Go to the top of the page
+Quote Post
landbaron
post Dec 1 2012, 23:26
Post #2054





Group: Members
Posts: 5
Joined: 20-November 12
Member No.: 104633



Hi! Not sure if this is a feature request or bug report ... I posted elsewhere but was directed here.

I'm taking a .wav rip and cue sheet (from EAC) and using CUETools 2.1.4 to split and encode it to separate FLAC tracks, my goal being to handle HTOA well.

The CUETools "Gaps Appended + HTOA" is fantastic, exactly the functionality I was looking for, except that the FLAC produced from the HTOA, while correct, is missing any of the artist/album/track/etc FLAC tags. The other, "normal", tracks from the same rip have all tags set properly.

I realize there's the question of what track # you tag the first track with, but I don't think that's a big deal. It'd work well enough to just call it "00", or to leave it blank, or to give the user the option to pick one of those two.

Thanks!
Go to the top of the page
+Quote Post
DarkMaru
post Dec 12 2012, 12:43
Post #2055





Group: Members
Posts: 2
Joined: 11-April 11
Member No.: 89729



Hello!
Checking out new disc, I found this CUE file:
CODE
REM GENRE Progressive House
REM DATE 2005
REM DISCID E5105411
REM COMMENT "ExactAudioCopy v0.95b4"
PERFORMER "MC Вспышкин & DJ Gagarin"
TITLE "Кобасный Цех 5"
FILE "01. MC Вспышкин & DJ Gagarin - Intro.ape" WAVE
TRACK 01 AUDIO
TITLE "Intro"
PERFORMER "MC Вспышкин & DJ Gagarin"
FLAGS DCP
INDEX 01 00:00:00
FILE "02. MC Вспышкин & Slim line - Эффект достигнут.ape" WAVE
TRACK 02 AUDIO
TITLE "Эффект достигнут"
PERFORMER "MC Вспышкин & Slim line"
FLAGS DCP
INDEX 01 00:00:00
FILE "03. Prodigy - Girls (Rex The Dog remix).ape" WAVE
TRACK 03 AUDIO
TITLE "Girls (Rex The Dog remix)"
PERFORMER "Prodigy"
FLAGS DCP
INDEX 01 00:00:00
FILE "04. Havana Funk - Bakiri Ban (Major Boys remix).ape" WAVE
TRACK 04 AUDIO
TITLE "Bakiri Ban (Major Boys remix)"
PERFORMER "Havana Funk"
FLAGS DCP
INDEX 01 00:00:00
FILE "05. David Guetta feat. JD Davis - The worlds is mine (Fuck Me I'm Famous remix).ape" WAVE
TRACK 05 AUDIO
TITLE "The worlds is mine (Fuck Me I'm Famous remix)"
PERFORMER "David Guetta feat. JD Davis"
FLAGS DCP
INDEX 01 00:00:00
FILE "06. Boogie Pimps - Somebody to love (Steve Murano remix).ape" WAVE
TRACK 06 AUDIO
TITLE "Somebody to love (Steve Murano remix)"
PERFORMER "Boogie Pimps"
FLAGS DCP
INDEX 01 00:00:00
FILE "07. Stellar project feat. Brandi Emma - Get up stand up (Flipside remix).ape" WAVE
TRACK 07 AUDIO
TITLE "Get up stand up (Flipside remix)"
PERFORMER "Stellar project feat. Brandi Emma"
FLAGS DCP
INDEX 01 00:00:00
FILE "08. Klubbheads present Dutch Klubb Dubbs 1 - I got the love.ape" WAVE
TRACK 08 AUDIO
TITLE "I got the love"
PERFORMER "Klubbheads present Dutch Klubb Dubbs 1"
FLAGS DCP
INDEX 01 00:00:00
FILE "09. Pankow park - Passengers blurshake.ape" WAVE
TRACK 09 AUDIO
TITLE "Passengers blurshake"
PERFORMER "Pankow park"
FLAGS DCP
INDEX 01 00:00:00
FILE "10. Чугунный скороход - Afterparty.ape" WAVE
TRACK 10 AUDIO
TITLE "Afterparty"
PERFORMER "Чугунный скороход"
FLAGS DCP
INDEX 01 00:00:00
FILE "11. Slim line - Rape me.ape" WAVE
TRACK 11 AUDIO
TITLE "Rape me"
PERFORMER "Slim line"
FLAGS DCP
INDEX 01 00:00:00
FILE "12. Cosmos - Cosmos rulez.ape" WAVE
TRACK 12 AUDIO
TITLE "Cosmos rulez"
PERFORMER "Cosmos"
FLAGS DCP
INDEX 01 00:00:00
FILE "13. DJ Deekline pres. Cut & Run - Outta space (Booty Space mix).ape" WAVE
TRACK 13 AUDIO
TITLE "Outta space (booty space mix)"
PERFORMER "DJ Deekline pres. Cut & Run"
FLAGS DCP
INDEX 01 00:00:00
FILE "14. Mauro Picotto & Riccardo Ferri - New time new place (original mix).ape" WAVE
TRACK 14 AUDIO
TITLE "New time new place (original mix)"
PERFORMER "Mauro Picotto & Riccardo Ferri"
FLAGS DCP
INDEX 01 00:00:00
FILE "15. DJ Antoine - All we need (Pablos Bass Praise mix).ape" WAVE
TRACK 15 AUDIO
TITLE "All we need (Pablos Bass Praise mix)"
PERFORMER "DJ Antoine"
FLAGS DCP
INDEX 01 00:00:00
FILE "16. Eric Prydz - Call on me (radio edit).ape" WAVE
TRACK 16 AUDIO
TITLE "Call on me (radio edit)"
PERFORMER "Eric Prydz"
FLAGS DCP
INDEX 01 00:00:00
FILE "17. DJ Nil & X-Mode - Animals.ape" WAVE
TRACK 17 AUDIO
TITLE "Animals"
PERFORMER "DJ Nil & X-Mode"
FLAGS DCP
INDEX 01 00:00:00

If I understand correctly, this is the usual standard CUE file for VA compilation disk.
Is it possible to add a column "Artist" in the CUE file editor for the tag "PERFORMER" at the tracks?
I have two variants in my mind:
1. Always display the column "Artist". If it is empty, then do not write it in the CUE file.
2. Show column "Artist", if the tag "PERFORMER" for tracks already exists in the file.

+ Add for VA discs file mask. (For myself, I would use this "%tracknumber%. %artist% - %title%".)
Go to the top of the page
+Quote Post
DT5
post Dec 14 2012, 15:10
Post #2056





Group: Members
Posts: 24
Joined: 9-October 12
Member No.: 103738



I get an exception: Indexes must be in chronological order with CUETools when i try to open the following CUE:

CODE
REM GENRE Christmas
REM DATE 1996
REM DISCID 09124D13
REM COMMENT "ExactAudioCopy v1.0b3"
CATALOG 0731455300222
PERFORMER "Various Artists"
TITLE "Rock Christmas - Die Neue (Volume 5)"
FILE "Various Artists - Rock Christmas - Die Neue (Volume 5).flac" WAVE
  TRACK 01 AUDIO
    TITLE "Thank God It's Christmas"
    PERFORMER "Queen"
    INDEX 01 00:00:00
  TRACK 02 AUDIO
    TITLE "Wonderful Christmas Time"
    PERFORMER "Paul McCartney"
    INDEX 01 04:19:55
  TRACK 03 AUDIO
    TITLE "Because It's Christmas (For All The Children)"
    PERFORMER "Barry Manilow"
    INDEX 00 04:19:55
    INDEX 01 08:06:37
  TRACK 04 AUDIO
    TITLE "Happy Xmas (War Is Over)"
    PERFORMER "John & Yoko / Plastic Ono Band, The"
    INDEX 00 04:19:55
    INDEX 01 13:35:55
  TRACK 05 AUDIO
    TITLE "Silent Night"
    PERFORMER "Sinead O'Connor"
    INDEX 00 04:19:55
    INDEX 01 17:10:20
  TRACK 06 AUDIO
    TITLE "Jingle Bells"
    PERFORMER "Yello"
    ISRC DEF079503260
    INDEX 00 04:19:55
    INDEX 01 20:52:62
  TRACK 07 AUDIO
    TITLE "The Gift Of Christmas"
    PERFORMER "Child Liners"
    INDEX 00 04:19:55
    INDEX 01 23:50:57
  TRACK 08 AUDIO
    TITLE "Last Christmas (Major Version)"
    PERFORMER "Whigfield"
    INDEX 00 04:19:55
    INDEX 01 27:55:27
  TRACK 09 AUDIO
    TITLE "The Power Of Love"
    PERFORMER "Frankie Goes To Hollywood"
    INDEX 00 04:19:55
    INDEX 01 32:09:47
  TRACK 10 AUDIO
    TITLE "It's The Most Wonderful Time Of The Year"
    PERFORMER "Amy Grant"
    INDEX 00 04:19:55
    INDEX 01 37:38:25
  TRACK 11 AUDIO
    TITLE "Children (Radio Mix)"
    PERFORMER "Hand In Hand For Children E.V."
    INDEX 00 04:19:55
    INDEX 01 40:05:62
  TRACK 12 AUDIO
    TITLE "When It's Christmas Time (Radio-Video Version)"
    PERFORMER "Worlds Apart"
    INDEX 00 04:19:55
    INDEX 01 43:39:60
  TRACK 13 AUDIO
    TITLE "Christmas Through Your Eyes"
    PERFORMER "Gloria Estefan"
    INDEX 00 04:19:55
    INDEX 01 47:45:52
  TRACK 14 AUDIO
    TITLE "Christmas Without You (Single Version)"
    PERFORMER "Bed & Breakfast"
    ISRC DEA629541240
    INDEX 00 04:19:55
    INDEX 01 52:44:70
  TRACK 15 AUDIO
    TITLE "Merry, Merry Christmas"
    PERFORMER "New Kids On The Block"
    INDEX 00 04:19:55
    INDEX 01 56:16:70
  TRACK 16 AUDIO
    TITLE "Have Yourself A Merry Little Christmas"
    PERFORMER "Vanessa Williams"
    INDEX 00 04:19:55
    INDEX 01 60:22:27
  TRACK 17 AUDIO
    TITLE "Every Year, Every Christmas"
    PERFORMER "Luther Vandross"
    INDEX 00 04:19:55
    INDEX 01 64:56:00
  TRACK 18 AUDIO
    TITLE "I Won't Be Home For Christmas (This Year)"
    PERFORMER "Be Like Water Feat. Ed. Jordan & Kreesan"
    INDEX 00 04:19:55
    INDEX 01 69:59:67
  TRACK 19 AUDIO
    TITLE "(It Must've Been Ol') Santa Claus"
    PERFORMER "Harry Connick Jr."
    INDEX 00 04:19:55
    INDEX 01 73:29:27


Other programs have no problem (like foobar).
I think CUETools has problems with the INDEX 00, INDEX 01.
With 3 of 5 Christmas CDs CUETools had this problem.

This post has been edited by DT5: Dec 14 2012, 15:11
Go to the top of the page
+Quote Post
korth
post Dec 14 2012, 15:48
Post #2057





Group: Members
Posts: 446
Joined: 13-March 11
Member No.: 88969



Improper gap detection method was used in EAC. Note that all INDEX 00's are 04:19:55. Tracks 03-19 shouldn't reference the end of track 1 as a pregap starting point. Try editing the cue sheet file by deleting all the lines containing "INDEX 00 04:19:55".

This post has been edited by korth: Dec 14 2012, 16:09


--------------------
korth
Go to the top of the page
+Quote Post
DT5
post Dec 16 2012, 11:00
Post #2058





Group: Members
Posts: 24
Joined: 9-October 12
Member No.: 103738



Thanks - this worked.
Only very strange that this never happened and now 3 times within of a very short time.

I have still another problem. I have an older image which is causing a 'synchonization was lost' exception.
Is in such a case the image lost or is it somehow possible to repair it?

When I check the log files of the rip:

QUOTE
Range status and errors

Selected range

Timing problem 0:19:47

Peak level 77.6 %
Test CRC F1ABABE0
Copy CRC F1ABABE0
Copy finished

No errors occurred


AccurateRip summary

Track 1 accurately ripped (confidence 8) [D3DF34D2]
Track 2 accurately ripped (confidence 8) [875ED2BE]
Track 3 accurately ripped (confidence 8) [3202B1EE]
Track 4 accurately ripped (confidence 8) [F3819B61]
Track 5 accurately ripped (confidence 8) [46FF31E0]
Track 6 accurately ripped (confidence 8) [E94B29A0]
Track 7 accurately ripped (confidence 8) [1A4B93E7]

All tracks accurately ripped

End of status report


then the timing problem was reported - but crc of test & copy were identically and also AccurateRip reported that the rip was fine. And it was verified by Accuraterip - there was no need for me to read the log more carefully.
It was ripped with eac 0.99

Go to the top of the page
+Quote Post
korth
post Dec 16 2012, 14:18
Post #2059





Group: Members
Posts: 446
Joined: 13-March 11
Member No.: 88969



Looks like a decoding problem (error in the flac file, assuming this was also a flac image). CUETools can't repair this. It might be possible to use another program to "decode through errors" but the resulting file will likely be truncated.


--------------------
korth
Go to the top of the page
+Quote Post
ecc29
post Dec 23 2012, 22:08
Post #2060





Group: Members
Posts: 4
Joined: 1-February 09
Member No.: 66476



QUOTE (DT5 @ Dec 14 2012, 09:10) *
I get an exception: Indexes must be in chronological order with CUETools when i try to open the following CUE:

Other programs have no problem (like foobar).
I think CUETools has problems with the INDEX 00, INDEX 01.
With 3 of 5 Christmas CDs CUETools had this problem.

I just got the same problem as yours. The index00 in the cue file looks like you posted, but it's a different CD. The funny thing is, I got this index out of range error when I use cuetools' encode function. Those flac tracks was verified with confidence 3. The cue file was generated by cuetools itself during encoding. It looks like cuetools generated some poison and finally killed itself.

This post has been edited by ecc29: Dec 23 2012, 22:12
Go to the top of the page
+Quote Post
korth
post Dec 23 2012, 23:13
Post #2061





Group: Members
Posts: 446
Joined: 13-March 11
Member No.: 88969



Different error message = same problem? Please provide the cue sheet.
There was a bug introduced in the early version of 2.1.4 when 'Detailed log' was enabled and the disc had a data track. Error would read something like:
"Index was out of range. Must be non-negative and less than the size of the collection."
A new version of 2.1.4 was uploaded over the previous one 11 JUL 2012 to fix this bug without a version bump.
You could have the older one.

This post has been edited by korth: Dec 23 2012, 23:18


--------------------
korth
Go to the top of the page
+Quote Post
ecc29
post Dec 24 2012, 06:15
Post #2062





Group: Members
Posts: 4
Joined: 1-February 09
Member No.: 66476



I checked the date of my cuetools. It's July 11 2012. Cuetools threw an exception when it was converting some flac tracks into one single ape file. The error message was "Exception: Index was out of range. Must be non-negative and less than the size of the collection. Parameter name: index"

The CUE was generated by cuetools:

CODE
REM ACCURATERIPID 0019e70a-00ee2951-b30ccc0c
REM DATE 2006
PERFORMER "Benise"
TITLE "Nights of Fire!"
CATALOG 015707981125
REM DISCNUMBER 1
REM TOTALDISCS 1
FILE "Benise - Nights of Fire!.ape" WAVE
  TRACK 01 AUDIO
    TITLE "Santa Barbara"
    PERFORMER "Benise"
    INDEX 01 00:00:00
  TRACK 02 AUDIO
    TITLE "Monserrat"
    PERFORMER "Benise"
    INDEX 01 04:52:41
  TRACK 03 AUDIO
    TITLE "Salsa Salsa"
    PERFORMER "Benise"
    INDEX 00 04:52:58
    INDEX 01 10:07:34
  TRACK 04 AUDIO
    TITLE "Mi Amor"
    PERFORMER "Benise"
    INDEX 00 04:52:44
    INDEX 01 15:10:52
  TRACK 05 AUDIO
    TITLE "Tribal"
    PERFORMER "Benise"
    INDEX 00 04:52:59
    INDEX 01 21:14:39
  TRACK 06 AUDIO
    TITLE "Galletto's Jam"
    PERFORMER "Benise"
    INDEX 00 04:52:50
    INDEX 01 26:34:03
  TRACK 07 AUDIO
    TITLE "Long Kiss Goodbye"
    PERFORMER "Benise"
    INDEX 00 04:52:51
    INDEX 01 31:01:08
  TRACK 08 AUDIO
    TITLE "Fandango"
    PERFORMER "Benise"
    INDEX 00 04:52:46
    INDEX 01 34:39:61
  TRACK 09 AUDIO
    TITLE "Prelude/Fuego"
    PERFORMER "Benise"
    INDEX 00 04:52:51
    INDEX 01 39:54:06
  TRACK 10 AUDIO
    TITLE "Desperado"
    PERFORMER "Benise"
    INDEX 00 04:52:47
    INDEX 01 41:54:65
  TRACK 11 AUDIO
    TITLE "Shambala"
    PERFORMER "Benise"
    INDEX 00 04:52:45
    INDEX 01 46:14:58
  TRACK 12 AUDIO
    TITLE "Carnaval"
    PERFORMER "Benise"
    INDEX 00 04:52:55
    INDEX 01 50:53:24

Go to the top of the page
+Quote Post
korth
post Dec 24 2012, 18:20
Post #2063





Group: Members
Posts: 446
Joined: 13-March 11
Member No.: 88969



This is an image cue sheet. If you were creating an image from tracks, this isn't the 'input' cue sheet CUETools was using that triggered the exception.


--------------------
korth
Go to the top of the page
+Quote Post
BrassDude
post Dec 27 2012, 15:35
Post #2064





Group: Members
Posts: 44
Joined: 1-February 11
Member No.: 87835



I have a weird problem with CUERipper on my new HP ProBook under Windows 8 (64 bit). When I try to rip a new CD to an image then CUERipper goes immediately into error correction mode after the first pass - and this is on a brand new CD fresh out of the box (i.e. jewel case). My drive is a HP DVD A DS8A8SH and the read offset (+6) is correctly detected and agrees with what is found on the accuraterip.com website.

So I was curious if I could rip the CD with foobar2000: see there, the CD ripped fine and was also confirmed accuraterip accurate (via CUETools). I also tested with Exact Audio Copy (EAC) and the CD ripped perfectly as well (again confirmed via CUETools).

So why is it that I can rip a CD fine with foobar2000 and EAC but not with CUERipper with the exact same hardware? What is CUERipper doing differently? Is this a problem with this specific drive? Anyone who had similar problems with HP drives?
Go to the top of the page
+Quote Post
ecc29
post Dec 28 2012, 00:39
Post #2065





Group: Members
Posts: 4
Joined: 1-February 09
Member No.: 66476



QUOTE (korth @ Dec 24 2012, 12:20) *
This is an image cue sheet. If you were creating an image from tracks, this isn't the 'input' cue sheet CUETools was using that triggered the exception.

Actually, there's no such thing like 'input' cue sheet. Even without any cue sheet, you put those tracks into cuetools and generate a image after verification, cuetools will finally throw that exception.

This post has been edited by ecc29: Dec 28 2012, 00:40
Go to the top of the page
+Quote Post
Gregory S. Chudo...
post Dec 28 2012, 03:16
Post #2066





Group: Developer
Posts: 702
Joined: 2-October 08
From: Ottawa
Member No.: 59035



QUOTE (ecc29 @ Dec 24 2012, 00:15) *
I checked the date of my cuetools. It's July 11 2012.

Try re-downloading CUETools. As Korth have suggested, this looks like a known bug which was hotfixed around that time.


--------------------
CUETools 2.1.4
Go to the top of the page
+Quote Post
ecc29
post Dec 29 2012, 18:04
Post #2067





Group: Members
Posts: 4
Joined: 1-February 09
Member No.: 66476



QUOTE (Gregory S. Chudov @ Dec 27 2012, 21:16) *
Try re-downloading CUETools. As Korth have suggested, this looks like a known bug which was hotfixed around that time.

Hi Gregory, I had re-downloaded the cuetools v2.1.4 in your first post and used it again. The same problem is still there.

This post has been edited by ecc29: Dec 29 2012, 18:08
Go to the top of the page
+Quote Post
Gregory S. Chudo...
post Dec 30 2012, 03:54
Post #2068





Group: Developer
Posts: 702
Joined: 2-October 08
From: Ottawa
Member No.: 59035



Ok, i can reproduce it. It's caused by insane pre-gap information in EAC log.


--------------------
CUETools 2.1.4
Go to the top of the page
+Quote Post
Eli
post Dec 30 2012, 14:38
Post #2069





Group: Members
Posts: 1056
Joined: 16-October 03
Member No.: 9337



Gregory,
I have CueRipper set to burst mode and its still doing significant error correction. Is this correct behavior? Is there a way to get a true burst mode?


--------------------
http://forum.dbpoweramp.com/showthread.php?t=21072
Go to the top of the page
+Quote Post
korth
post Dec 30 2012, 15:09
Post #2070





Group: Members
Posts: 446
Joined: 13-March 11
Member No.: 88969



If the drive reports C2 errors in burst mode then up to 15 retries are done. C2 error reporting is one of the 'detected' drive features that can't be disabled.

This post has been edited by korth: Dec 30 2012, 15:10


--------------------
korth
Go to the top of the page
+Quote Post
Luke M
post Jan 4 2013, 22:42
Post #2071





Group: Members
Posts: 2
Joined: 4-January 13
Member No.: 105592



What's the easiest way to do an "in place" fix up (e.g. offset correction) of an existing rip? Cuetools doesn't seem to allow the destination to be the same as the source.

Also, how do you disable writing a .cue file? (since the rips are in files this cue is completely useless)

Thanks.
Go to the top of the page
+Quote Post
korth
post Jan 5 2013, 00:37
Post #2072





Group: Members
Posts: 446
Joined: 13-March 11
Member No.: 88969



The output file names would need to be different. CUETools cannot overwrite the source files.

You can't disable writing the CUE file except when creating an image with embedded cue. The goal of the program is to preserve this information, not discard it.


--------------------
korth
Go to the top of the page
+Quote Post
Luke M
post Jan 5 2013, 04:26
Post #2073





Group: Members
Posts: 2
Joined: 4-January 13
Member No.: 105592



QUOTE (korth @ Jan 5 2013, 01:37) *
You can't disable writing the CUE file except when creating an image with embedded cue. The goal of the program is to preserve this information, not discard it.


That would make sense if I were creating an image. But I'm not.

The information is already stored twice, in the tags and the filename. Why do I need THREE copies of the same information?

Example cue file generated by cuetools:

REM COMMENT "CUETools generated dummy CUE sheet"
PERFORMER "Samuel Barber"
TITLE "Schenck Fadograph"
FILE "Samuel Barber - Schenck Fadograph - 01 - Fadograph of a Yestern Scene.flac" WAVE
TRACK 01 AUDIO
PERFORMER "Samuel Barber"
TITLE "Fadograph of a Yestern Scene"
INDEX 01 00:00:00
FILE "Samuel Barber - Schenck Fadograph - 02 - Medea (Suite) - Parados.flac" WAVE
TRACK 02 AUDIO
PERFORMER "Samuel Barber"
TITLE "Medea (Suite) - Parados"
INDEX 01 00:00:00
FILE "Samuel Barber - Schenck Fadograph - 03 - Medea (Suite) - Choros.flac" WAVE
TRACK 03 AUDIO
PERFORMER "Samuel Barber"
TITLE "Medea (Suite) - Choros"
INDEX 01 00:00:00
FILE "Samuel Barber - Schenck Fadograph - 04 - Medea (Suite) - The Young Princess.flac" WAVE
TRACK 04 AUDIO
PERFORMER "Samuel Barber"
TITLE "Medea (Suite) - The Young Princess"
INDEX 01 00:00:00
FILE "Samuel Barber - Schenck Fadograph - 05 - Medea (Suite) - Choros.flac" WAVE
TRACK 05 AUDIO
PERFORMER "Samuel Barber"
TITLE "Medea (Suite) - Choros"
INDEX 01 00:00:00
FILE "Samuel Barber - Schenck Fadograph - 06 - Medea (Suite) - Medea.flac" WAVE
TRACK 06 AUDIO
PERFORMER "Samuel Barber"
TITLE "Medea (Suite) - Medea"
INDEX 01 00:00:00
FILE "Samuel Barber - Schenck Fadograph - 07 - Medea (Suite) - Kantikos Agonias.flac" WAVE
TRACK 07 AUDIO
PERFORMER "Samuel Barber"
TITLE "Medea (Suite) - Kantikos Agonias"
INDEX 01 00:00:00
FILE "Samuel Barber - Schenck Fadograph - 08 - Medea (Suite) - Exodos.flac" WAVE
TRACK 08 AUDIO
PERFORMER "Samuel Barber"
TITLE "Medea (Suite) - Exodos"
INDEX 01 00:00:00
FILE "Samuel Barber - Schenck Fadograph - 09 - Third Essay.flac" WAVE
TRACK 09 AUDIO
PERFORMER "Samuel Barber"
TITLE "Third Essay"
INDEX 01 00:00:00
Go to the top of the page
+Quote Post
korth
post Jan 5 2013, 05:13
Post #2074





Group: Members
Posts: 446
Joined: 13-March 11
Member No.: 88969



Please put CUEs, LOGs or other examples in a codebox.

This post has been edited by korth: Jan 5 2013, 05:44


--------------------
korth
Go to the top of the page
+Quote Post
Gregory S. Chudo...
post Jan 5 2013, 05:35
Post #2075





Group: Developer
Posts: 702
Joined: 2-October 08
From: Ottawa
Member No.: 59035



QUOTE (Luke M @ Jan 4 2013, 16:42) *
What's the easiest way to do an "in place" fix up (e.g. offset correction) of an existing rip? Cuetools doesn't seem to allow the destination to be the same as the source.

Also, how do you disable writing a .cue file? (since the rips are in files this cue is completely useless)

Thanks.


Although offset correction was one of the first features i implemented when i started to work on cuetools, i have long since decided that it's quite useless. Offset correction doesn't add anything to the quality of your files, and even subtracts a few samples. You don't need to apply offset to be able to verify your rip, and it doesn't affect how it sounds. Each time when i release a new CUETools version, i am strongly tempted to remove offset correction feature altogether.

In-place conversion is one of frequently requested features, it's on my list.

And unfortunately you can't disable writing a .cue file, but it's also on my list mainly because it's useless when converting to lossy formats.


--------------------
CUETools 2.1.4
Go to the top of the page
+Quote Post

103 Pages V  « < 81 82 83 84 85 > » 
Reply to this topicStart new topic
1 User(s) are reading this topic (1 Guests and 0 Anonymous Users)
0 Members:

 



RSS Lo-Fi Version Time is now: 25th October 2014 - 00:11