IPB

Welcome Guest ( Log In | Register )

 
Reply to this topicStart new topic
Burning cda from mp3 with correct tracklisting?
swayzak
post Nov 8 2005, 16:37
Post #1





Group: Members
Posts: 216
Joined: 23-August 05
Member No.: 24082



Hi.
I tend to use mp3's just as a compressed method of transporting music via internet.
I then always reexpand them on cd's to cda files so I can play them in my car stereo.
Recently I've been getting to grips with EAC - lovely program !
So I extracted a "mix" cd as one large mp3 file to avoid gaps between tracks.

This worked great.

However after burning as cda, I'm left with one large single cda track e.g. can't navigate to different tracks.

Is there some way I can use the cue sheet I generated with EAC when burning to allow my car player to recognise the different tracks ?

I seem to remember reading that mp3 files are incompatible with cue sheets - is this just for burning mp3 disks or does it apply to mp3 ---> cda burning as well.

I use Nero 6.

Thanks, swayzak
Go to the top of the page
+Quote Post
Societal Eclipse
post Nov 8 2005, 17:00
Post #2





Group: Members
Posts: 222
Joined: 22-April 03
From: Fairfax, VA, USA
Member No.: 6127



Make sure you change all the "WAVE" to "MP3" in the cue sheet you got from EAC when you first ripped the CD.

QUOTE
PERFORMER "Delerium"
TITLE "Singles"
FILE "C:\My Documents\My Music\WAV & MAC\Delerium - Karma (Disc 2).wav" WAVE
  TRACK 01 AUDIO
    INDEX 01 00:00:00

.wav + WAVE -> MP3


--------------------
"Have you ever been with a woman? It's like death. You moan, you scream and then you start to beg for mercy, for salvation"
Go to the top of the page
+Quote Post
swayzak
post Nov 9 2005, 10:27
Post #3





Group: Members
Posts: 216
Joined: 23-August 05
Member No.: 24082



QUOTE (Societal Eclipse @ Nov 8 2005, 10:00 AM)
Make sure you change all the "WAVE" to "MP3" in the cue sheet you got from EAC when you first ripped the CD.

QUOTE
PERFORMER "Delerium"
TITLE "Singles"
FILE "C:\My Documents\My Music\WAV & MAC\Delerium - Karma (Disc 2).wav" WAVE
  TRACK 01 AUDIO
    INDEX 01 00:00:00

.wav + WAVE -> MP3
*



thankyou very much

Here's the cue sheet for the dj mix cd I have extracted as a single wav file:
CODE

REM GENRE "Drum & Bass"
REM DATE 1996
REM DISCID 840D560B
REM COMMENT "ExactAudioCopy v0.95b3"
PERFORMER "Various"
TITLE "The past, the presence and the future of Atmospheric Drum & Bass (Disc 2)"
FILE "Various - The past, the presence and the future of Atmospheric Drum & Bass (Disc 2).mp3" WAVE
TRACK 01 AUDIO
TITLE "Moments of Pleasure"
PERFORMER "Dextrous"
INDEX 01 00:00:00
TRACK 02 AUDIO
TITLE "The Blues"
PERFORMER "Nookie"
INDEX 01 05:40:25
TRACK 03 AUDIO
TITLE "Just For You"
PERFORMER "Subject 13"
INDEX 01 10:45:25
TRACK 04 AUDIO
TITLE "Seachange"
PERFORMER "Misterjon"
INDEX 01 16:29:25
TRACK 05 AUDIO
TITLE "Definition of a Track"
PERFORMER "Perfect Combination"
INDEX 01 21:00:25
TRACK 06 AUDIO
TITLE "The Busker"
PERFORMER "SDR & John Williams"
INDEX 01 24:39:25
TRACK 07 AUDIO
TITLE "The Way"
PERFORMER "Phyzix"
INDEX 01 31:44:25
TRACK 08 AUDIO
TITLE "Avant-Garde"
PERFORMER "Dual Fusion"
INDEX 01 36:45:25
TRACK 09 AUDIO
TITLE "Way of Life"
PERFORMER "SDR & Subsonic"
INDEX 01 42:38:25
TRACK 10 AUDIO
TITLE "Let Yourself Go"
PERFORMER "Glowball"
INDEX 01 50:02:25
TRACK 11 AUDIO
TITLE "Mountain"


I can only see one "WAVE" here...is that the only thing I need to change ?

Do I just burn it with Nero 6, making sure the cue sheet is in the same folder as the single large mp3 file ?

I'm sure that's what I did last time but the car player only sees 1 large track....
Go to the top of the page
+Quote Post
Societal Eclipse
post Nov 9 2005, 17:36
Post #4





Group: Members
Posts: 222
Joined: 22-April 03
From: Fairfax, VA, USA
Member No.: 6127



Yes just change that WAVE to MP3 since you already have the file extension set to the correct .mp3. In Nero don't go to the New Audio Disc function...just click File -> Open and select the Cue sheet. There will be a pause as it grabs the file(s) and arranges them then you are ready to burn with the correct track markings.


--------------------
"Have you ever been with a woman? It's like death. You moan, you scream and then you start to beg for mercy, for salvation"
Go to the top of the page
+Quote Post
swayzak
post Nov 9 2005, 21:14
Post #5





Group: Members
Posts: 216
Joined: 23-August 05
Member No.: 24082



QUOTE (Societal Eclipse @ Nov 9 2005, 10:36 AM)
Yes just change that WAVE to MP3 since you already have the file extension set to the correct .mp3.  In Nero don't go to the New Audio Disc function...just click File -> Open and select the Cue sheet.  There will be a pause as it grabs the file(s) and arranges them then you are ready to burn with the correct track markings.
*


thanks again !

I have encountered another problem now...

I tried editing the cue file for FSOL's Cascade EP (when I replaced "WAVE" by mp3 Nero gave an error at every line involved - so I changed them back to WAVE. Then Nero opened the file for burning).

e.g.
CODE

REM GENRE Ambient
REM DATE 1993
REM DISCID 57085F06
REM COMMENT "ExactAudioCopy v0.95b3"
PERFORMER "The Future Sound Of London"
TITLE "Cascade"
FILE "(01) Cascade (Part 1) - The Future Sound Of London.mp3" WAVE
TRACK 01 AUDIO
TITLE "Cascade (Part 1)"
PERFORMER "The Future Sound Of London"
PREGAP 00:00:33
INDEX 01 00:00:00
FILE "(02) Cascade (Part 2) - The Future Sound Of London.mp3" WAVE
TRACK 02 AUDIO
TITLE "Cascade (Part 2)"
PERFORMER "The Future Sound Of London"
INDEX 01 00:00:00
FILE "(03) Cascade (Part 3) - The Future Sound Of London.mp3" WAVE
TRACK 03 AUDIO
TITLE "Cascade (Part 3)"
PERFORMER "The Future Sound Of London"
INDEX 01 00:00:00
FILE "(04) Cascade (Part 4) - The Future Sound Of London.mp3" WAVE
TRACK 04 AUDIO
TITLE "Cascade (Part 4)"
PERFORMER "The Future Sound Of London"
INDEX 01 00:00:00
FILE "(05) Cascade (Part 5) - The Future Sound Of London.mp3" WAVE
TRACK 05 AUDIO
TITLE "Cascade (Part 5)"
PERFORMER "The Future Sound Of London"
INDEX 01 00:00:00
TRACK 06 AUDIO
TITLE "Cascade (Shortform)"
PERFORMER "The Future Sound Of London"
INDEX 00 06:08:53
FILE "(06) Cascade (Shortform) - The Future Sound Of London.mp3" WAVE
INDEX 01 00:00:00

But when I inserted a blank CD-R, I got an error message and logfile:
CODE

Windows XP 5.1
IA32
WinAspi: -
ahead WinASPI: File 'C:\Program Files\Ahead\nero\Wnaspi32.dll': Ver=2.0.1.74, size=164112 bytes, created 26/10/2004 17:35:34
Nero Version: 6.6.0.16
Internal Version: 6, 6, 0, 16b

Recorder: <HL-DT-ST RW/DVD GCC-4521B>Version: 1.05 - HA 1 TA 0 - 6.6.0.16
Adapter driver: <atapi> HA 1
Drive buffer : 2048kB
Bus Type : default (0) -> ATAPI, detected: ATAPI
CD-ROM: <HL-DT-ST RW/DVD GCC-4521B>Version: 1.05 - HA 1 TA 0 - 6.6.0.16
Adapter driver: <atapi> HA 1

=== Scsi-Device-Map ===
DiskPeripheral : Maxtor 6Y080L0 atapi Port 0 ID 0 DMA: On
CdRomPeripheral : HL-DT-ST RW/DVD GCC-4521B atapi Port 1 ID 0 DMA: Off

=== CDRom-Device-Map ===
HL-DT-ST RW/DVD GCC-4521B D: CDRom0
=======================

AutoRun : 1
Excluded drive IDs:
WriteBufferSize: 74448896 (0) Byte
ShowDrvBufStat : 0
BUFE : 0
Physical memory : 511MB (523760kB)
Free physical memory: 120MB (123560kB)
Memory in use : 76 %
Uncached PFiles: 0x0
Use Inquiry : 1
Global Bus Type: default (0)
Check supported media : Disabled (0)

9.11.2005
CueSheet
19:53:48 #1 Text 0 File Burncd.cpp, Line 2948
HL-DT-ST RW/DVD GCC-4521B
Buffer underrun protection activated

19:53:48 #2 Text 0 File Reader.cpp, Line 127
Reader running

19:53:48 #3 Text 0 File Burncd.cpp, Line 3233
Turn on Disc-At-Once, using CD-R/RW media

19:54:44 #4 Phase 40 File dlgbrnst.cpp, Line 1832
Aborted by user

19:54:44 #5 Text 0 File DlgWaitCD.cpp, Line 270
Disc check failed: Initializing Disc Info

19:54:44 #6 Text 0 File DlgWaitCD.cpp, Line 282
Write in overburning mode: NO (enabled: CD)

19:54:44 #7 Text 0 File DlgWaitCD.cpp, Line 2483
Recorder: HL-DT-ST RW/DVD GCC-4521B
Medium not present

19:54:44 #8 Text 0 File DlgWaitCD.cpp, Line 448
>>> Protocol of DlgWaitCD activities: <<<
=========================================
Insert empty disc to write to.
(Medium in drive: Unknown. Medium required by compilation: CD-R/RW.)
Reading of disc information failed.
(Medium in drive: CD-R. Medium required by compilation: CD-R/RW.)


Existing drivers:
File 'Drivers\InCDfs.SYS': Ver=4, 3, 20, 1, size=101504 bytes, created 25/07/2005 10:53:28 (InCD4 driver for win NT/2K/XP)
File 'Drivers\InCDpass.SYS': Ver=4, 3, 20, 1, size=29696 bytes, created 25/07/2005 10:53:04 (InCD4 driver for win NT/2K/XP)
File 'Drivers\InCDrec.SYS': Ver=4, 3, 20, 1, size=8704 bytes, created 25/07/2005 10:53:30 (InCD4 driver for win NT/2K/XP)
File 'Drivers\atapi.sys': Ver=5.1.2600.2180 (xpsp_sp2_rtm.040803-2158), size=95360 bytes, created 04/08/2004 12:00:00 (Adapter driver for rec)

Registry Keys:
HKLM\Software\Microsoft\Windows NT\CurrentVersion\WinLogon\AllocateCDROMs : 0 (Security Option)

Tried 2 cd-r's but same problem.

Any ideas ?

Cheers, swayzak
Go to the top of the page
+Quote Post
Societal Eclipse
post Nov 9 2005, 22:14
Post #6





Group: Members
Posts: 222
Joined: 22-April 03
From: Fairfax, VA, USA
Member No.: 6127



QUOTE (swayzak @ Nov 9 2005, 04:14 PM)
19:53:48 #3 Text 0 File Burncd.cpp, Line 3233
Turn on Disc-At-Once, using CD-R/RW media

19:54:44 #4 Phase 40 File dlgbrnst.cpp, Line 1832
Aborted by user

19:54:44 #5 Text 0 File DlgWaitCD.cpp, Line 270
Disc check failed: Initializing Disc Info

19:54:44 #6 Text 0 File DlgWaitCD.cpp, Line 282
Write in overburning mode: NO (enabled: CD)

19:54:44 #7 Text 0 File DlgWaitCD.cpp, Line 2483
Recorder: HL-DT-ST RW/DVD GCC-4521B
  Medium not present

19:54:44 #8 Text 0 File DlgWaitCD.cpp, Line 448
>>> Protocol of DlgWaitCD activities: <<<
=========================================
Insert empty disc to write to.
  (Medium in drive: Unknown. Medium required by compilation: CD-R/RW.)
Reading of disc information failed.
  (Medium in drive: CD-R. Medium required by compilation: CD-R/RW.)


Looks like bad media. Nero isn't even recognizing the discs. I have some cheap CD-Rs that sometimes die 1/3 through a burn but even they get farther than that. Unless someone has a better idea of why you have that problem...


--------------------
"Have you ever been with a woman? It's like death. You moan, you scream and then you start to beg for mercy, for salvation"
Go to the top of the page
+Quote Post
Gambit
post Nov 9 2005, 23:14
Post #7


Burrrn developer


Group: Developer
Posts: 917
Joined: 25-November 01
From: Bratislava, Slovakia
Member No.: 534



I usually don't try to pimp my stuff too much, but seing the growing despair in this thread, I'll just recommend that you try Burrrn. It should burn your cue right away, without the need to edit anything.

Edit: I just noticed that DMA is off for your drive, you better check that.

This post has been edited by Gambit: Nov 9 2005, 23:20


--------------------
Burrrn - http://www.burrrn.net/
MPEG Audio Collection - http://mac.sourceforge.net/
Go to the top of the page
+Quote Post
swayzak
post Nov 10 2005, 00:55
Post #8





Group: Members
Posts: 216
Joined: 23-August 05
Member No.: 24082



QUOTE (Gambit @ Nov 9 2005, 04:14 PM)
I usually don't try to pimp my stuff too much, but seing the growing despair in this thread, I'll just recommend that you try Burrrn. It should burn your cue right away, without the need to edit anything.

Edit: I just noticed that DMA is off for your drive, you better check that.
*


Thanks - I just noticed that as well.

Tried to enable this in Device Manager but "PIO" remains as current selection (greyed out).

This is on a REALLY old BX motherboard (Chaintech 6-btm, 1999) - the cd/dvd drive is fairly new.

Is this a restriction of the mboard or can I enable this ?
Go to the top of the page
+Quote Post
dreamliner77
post Nov 10 2005, 03:17
Post #9





Group: Members
Posts: 2151
Joined: 29-June 02
From: Boston
Member No.: 2427



If the mobo supports it, you can uninstall the IDE channel and reboot.

Also, burrrn is definitely the way to go.


--------------------
"You can fight without ever winning, but never win without a fight." Neil Peart 'Resist'
Go to the top of the page
+Quote Post
swayzak
post Nov 10 2005, 20:55
Post #10





Group: Members
Posts: 216
Joined: 23-August 05
Member No.: 24082



QUOTE (dreamliner77 @ Nov 9 2005, 08:17 PM)
If the mobo supports it, you can uninstall the IDE channel and reboot. 

Also, burrrn is definitely the way to go.
*


That worked !

Now presumably this PIO was active before - but I've burnt many cd's successfully in that time.

I guess with DMA enabled now, it should use less cpu power ?
Go to the top of the page
+Quote Post
swayzak
post Nov 10 2005, 22:59
Post #11





Group: Members
Posts: 216
Joined: 23-August 05
Member No.: 24082



Actually I'm still puzzled.

Burning a cd from NeroExpress works fine (with the previously rejected cd's).

What I actually get when trying to burn from cue sheet is a Nero error window stating that the required medium is CD-R/RW...and the current media in drive is CD-R !!!??

The cue file is in the same folder as the mp3 tracks.

What's going on here..... mad.gif
Go to the top of the page
+Quote Post
swayzak
post Nov 12 2005, 01:07
Post #12





Group: Members
Posts: 216
Joined: 23-August 05
Member No.: 24082



QUOTE (dreamliner77 @ Nov 9 2005, 08:17 PM)
If the mobo supports it, you can uninstall the IDE channel and reboot. 

Also, burrrn is definitely the way to go.
*


thanks

Burrn seems to cope with this alot better than Nero....just burning the first test now
Go to the top of the page
+Quote Post

Reply to this topicStart new topic
1 User(s) are reading this topic (1 Guests and 0 Anonymous Users)
0 Members:

 



RSS Lo-Fi Version Time is now: 21st December 2014 - 21:59