IPB

Welcome Guest ( Log In | Register )

 
Reply to this topicStart new topic
cue won't work
porsche~lover
post Jun 7 2003, 16:12
Post #1





Group: Members
Posts: 23
Joined: 26-May 03
Member No.: 6811



the following cue file won't burn with nero. why? thx. the cue file was generated with EAC

PERFORMER "Slayer"
TITLE "Reign In Blood"
FILE "C:\Musepack\CDs\Slayer (1986) Reign In Blood\01 - Angel Of Death.wav" WAVE
TRACK 01 AUDIO
TITLE "Angel Of Death"
PERFORMER "Slayer"
ISRC USSM18600233
INDEX 01 00:00:00
FILE "C:\Musepack\CDs\Slayer (1986) Reign In Blood\02 - Piece By Piece.wav" WAVE
TRACK 02 AUDIO
TITLE "Piece By Piece"
PERFORMER "Slayer"
ISRC USSM18600234
INDEX 01 00:00:00
FILE "C:\Musepack\CDs\Slayer (1986) Reign In Blood\03 - Necrophobic.wav" WAVE
TRACK 03 AUDIO
TITLE "Necrophobic"
PERFORMER "Slayer"
ISRC USSM18600235
INDEX 01 00:00:00
FILE "C:\Musepack\CDs\Slayer (1986) Reign In Blood\04 - Altar Of Sacrifice.wav" WAVE
TRACK 04 AUDIO
TITLE "Altar Of Sacrifice"
PERFORMER "Slayer"
ISRC USSM18600236
INDEX 01 00:00:00
FILE "C:\Musepack\CDs\Slayer (1986) Reign In Blood\05 - Jesus Saves.wav" WAVE
TRACK 05 AUDIO
TITLE "Jesus Saves"
PERFORMER "Slayer"
ISRC USSM18600237
INDEX 01 00:00:00
FILE "C:\Musepack\CDs\Slayer (1986) Reign In Blood\06 - Criminally Insane.wav" WAVE
TRACK 06 AUDIO
TITLE "Criminally Insane"
PERFORMER "Slayer"
ISRC USSM18600238
INDEX 01 00:00:00
FILE "C:\Musepack\CDs\Slayer (1986) Reign In Blood\07 - Reborn.wav" WAVE
TRACK 07 AUDIO
TITLE "Reborn"
PERFORMER "Slayer"
ISRC USSM18600232
INDEX 01 00:00:00
FILE "C:\Musepack\CDs\Slayer (1986) Reign In Blood\08 - Epidemic.wav" WAVE
TRACK 08 AUDIO
TITLE "Epidemic"
PERFORMER "Slayer"
ISRC USSM18600239
INDEX 01 00:00:00
FILE "C:\Musepack\CDs\Slayer (1986) Reign In Blood\09 - Postmortem.wav" WAVE
TRACK 09 AUDIO
TITLE "Postmortem"
PERFORMER "Slayer"
ISRC USSM18600240
INDEX 01 00:00:00
FILE "C:\Musepack\CDs\Slayer (1986) Reign In Blood\10 - Raining Blood.wav" WAVE
TRACK 10 AUDIO
TITLE "Raining Blood"
PERFORMER "Slayer"
ISRC USSM18600241
INDEX 01 00:00:00
TRACK 11 AUDIO
TITLE "Aggressive Perfector"
PERFORMER "Slayer"
ISRC USSM18600264
INDEX 00 04:15:40
FILE "C:\Musepack\CDs\Slayer (1986) Reign In Blood\11 - Aggressive Perfector.wav" WAVE
INDEX 01 00:00:00
TRACK 12 AUDIO
TITLE "Criminally Insane (Remix)"
PERFORMER "Slayer"
ISRC USSM18600265
INDEX 00 02:29:43
FILE "C:\Musepack\CDs\Slayer (1986) Reign In Blood\12 - Criminally Insane (Remix).wav" WAVE
INDEX 01 00:00:00
Go to the top of the page
+Quote Post
/\/ephaestous
post Jun 7 2003, 16:20
Post #2





Group: Members
Posts: 648
Joined: 25-October 02
From: Colombia
Member No.: 3620



in short. it's an irregular Cuesheet generated by EAC in order to burn the gaps properly.
You can't burn it with Nero

Try.
burnatonce
or
Burrrn

These two apps can burn these cuesheets


--------------------
"You have the right to remain silent. Anything you say will be misquoted, then used against you."
Go to the top of the page
+Quote Post
Jan S.
post Jun 7 2003, 16:21
Post #3





Group: Admin
Posts: 2551
Joined: 26-September 01
From: Denmark
Member No.: 21



Which option was used in EAC to generate this cue sheet?
"multiple files with gaps (noncompliant)" cannot be used with nero; only EAC.
Go to the top of the page
+Quote Post
minix
post Jun 7 2003, 16:22
Post #4





Group: Members
Posts: 328
Joined: 19-January 03
Member No.: 4639



What does Nero says?

What are these index-0 lines in tracks 11 and 12?
"INDEX 00 04:15:40"
"INDEX 00 02:29:43"

They make no sense, I think.


Edit: OK, non-compliant cuesheets.
how do I set up EAC to make compliant cuesheets? or better, what is the advantage of these cuesheets?

This post has been edited by minix: Jun 7 2003, 16:25
Go to the top of the page
+Quote Post
porsche~lover
post Jun 7 2003, 16:27
Post #5





Group: Members
Posts: 23
Joined: 26-May 03
Member No.: 6811



problem solved.. EAC can burn it... burnatonce couldn't btw...
Go to the top of the page
+Quote Post
/\/ephaestous
post Jun 7 2003, 16:29
Post #6





Group: Members
Posts: 648
Joined: 25-October 02
From: Colombia
Member No.: 3620



QUOTE (porsche~lover @ Jun 7 2003 - 10:27 AM)
problem solved.. EAC can burn it... burnatonce couldn't btw...

yes it can, you have to add it as a playlist in the Audio Cd mastering window


--------------------
"You have the right to remain silent. Anything you say will be misquoted, then used against you."
Go to the top of the page
+Quote Post
porsche~lover
post Jun 7 2003, 16:32
Post #7





Group: Members
Posts: 23
Joined: 26-May 03
Member No.: 6811



QUOTE (minix @ Jun 7 2003 - 07:22 AM)
What does Nero says?

What are these index-0 lines in tracks 11 and 12?
"INDEX 00 04:15:40"
"INDEX 00 02:29:43"

They make no sense, I think.


Edit: OK, non-compliant cuesheets.
how do I set up EAC to make compliant cuesheets? or better, what is the advantage of these cuesheets?

nero didn't give any reason for the failure...

btw i let EAC make the cue sheet, now i have an EXACT copy of the original audio cd^^ secure rip > 8x burn. i guest the copy is 100% perfect (also correct read/write offsets).. also, cddb recognizes it..

non compliant is the most exact i think because it allows every setting of the original to be in the resulting cue sheet (i think)

>What are these index-0 lines in tracks 11 and 12?
>"INDEX 00 04:15:40"
>"INDEX 00 02:29:43"

doen't know, EAC made the cue sheet smile.gif
Go to the top of the page
+Quote Post
/\/ephaestous
post Jun 7 2003, 16:32
Post #8





Group: Members
Posts: 648
Joined: 25-October 02
From: Colombia
Member No.: 3620



QUOTE (minix @ Jun 7 2003 - 10:22 AM)
what is the advantage of these cuesheets?

you get to keep the pregaps in the end of the previous track and then burn them to the cd correctly.

if you use cds with pregaps (negative indexes) the pregaps must be before the track in order to burn them correctly using a standard cuesheet


--------------------
"You have the right to remain silent. Anything you say will be misquoted, then used against you."
Go to the top of the page
+Quote Post
minix
post Jun 7 2003, 16:52
Post #9





Group: Members
Posts: 328
Joined: 19-January 03
Member No.: 4639



Yep, I'm silly.


QUOTE
non compliant is the most exact i think because it allows every setting of the original to be in the resulting cue sheet (i think)

I understand that's not the case.
If you want to make a perfect copy it doesn't matter if the cue is compliant or not.
But if you're going to play those files, or make MP3s from them, or burning them without cuesheet, then you'll have the pauses at the beginning of the track if you use compliant cuesheets, which is a pain.

If I'm not mistaken, a compliant cuesheet would be:
TRACK 12 AUDIO
TITLE "Criminally Insane (Remix)"
PERFORMER "Slayer"
FILE "C:\Musepack\CDs\Slayer (1986) Reign In Blood\12 - Criminally Insane (Remix).wav" WAVE
INDEX 00 00:00:00
INDEX 01 00:02:00

and the 2 seconds silence would have to be at the beginning of the file.


I'd also say that if you use one WAV for all the tracks, you'll have no problem to burn the cuesheet with any program.

This post has been edited by minix: Jun 7 2003, 16:53
Go to the top of the page
+Quote Post
liekloo
post Jun 8 2003, 13:47
Post #10





Group: Members
Posts: 456
Joined: 22-March 02
From: Belgium
Member No.: 1596



QUOTE (Jan S. @ Jun 7 2003 - 04:21 PM)
Which option was used in EAC to generate this cue sheet?
"multiple files with gaps (noncompliant)" cannot be used with nero; only EAC.

Not only EAC. Burrn & other programs accept it as well.


--------------------
"E S S E N T I A L" Guide for E A C :

http://users.fulladsl.be/spb2267/
Go to the top of the page
+Quote Post

Reply to this topicStart new topic
1 User(s) are reading this topic (1 Guests and 0 Anonymous Users)
0 Members:

 



RSS Lo-Fi Version Time is now: 21st December 2014 - 10:29