IPB

Welcome Guest ( Log In | Register )

 
Reply to this topicStart new topic
Write Offset HP DVDRAM GT20L, Issues finding offset
azarlengo781
post Jul 30 2013, 16:19
Post #1





Group: Members
Posts: 9
Joined: 30-July 13
Member No.: 109373



Hello my name Anthony. Im new to the forums. I am having some difficulty figuring the write offset for my burner in EAC. I got the read offset correct. Everytime I try to figure the write offset EAC crashes on me. Does anyone know the write offset for HP DVDRAM GT20L. This would be a tremendous help so i can burn my flac files w a .cue sheet. I dont think im going to have any luck using the offset cd-r i created. Thanks in advance and i appreciate all the useful info i have already obtained from the site!
Go to the top of the page
+Quote Post
azarlengo781
post Jul 30 2013, 22:03
Post #2





Group: Members
Posts: 9
Joined: 30-July 13
Member No.: 109373



If it helps the error eac gives me is "at utils.2060 -> INDEX-RANGE" when detecting sample offset
Go to the top of the page
+Quote Post
azarlengo781
post Jul 30 2013, 22:46
Post #3





Group: Members
Posts: 9
Joined: 30-July 13
Member No.: 109373



My read offset correction is +667. I saw in someones eac log with the same burner that the combined read write offset is 5. If that were correct would my write offset be +662?
Go to the top of the page
+Quote Post
azarlengo781
post Jul 30 2013, 22:51
Post #4





Group: Members
Posts: 9
Joined: 30-July 13
Member No.: 109373



Sorry i mean -662
Go to the top of the page
+Quote Post
Wombat
post Jul 30 2013, 22:52
Post #5





Group: Members
Posts: 1034
Joined: 7-October 01
Member No.: 235



Maybe a stupid idea but what about wasting one cdr and burn some. Afterwards rip again and check with CUEtools what offset the burned files have against the original files.

This post has been edited by Wombat: Jul 30 2013, 23:00
Go to the top of the page
+Quote Post
azarlengo781
post Jul 30 2013, 23:15
Post #6





Group: Members
Posts: 9
Joined: 30-July 13
Member No.: 109373



Ok never used cuetools but ill give it a shot. Thanks!
Go to the top of the page
+Quote Post
Wombat
post Jul 30 2013, 23:23
Post #7





Group: Members
Posts: 1034
Joined: 7-October 01
Member No.: 235



Use a cd you burn that verifies against AR with CUEtools. Best would be one that hasn't to much alternate offset in the database to prevent confusion.
Go to the top of the page
+Quote Post
azarlengo781
post Aug 1 2013, 00:54
Post #8





Group: Members
Posts: 9
Joined: 30-July 13
Member No.: 109373



CODE
EAC LOG
Exact Audio Copy V0.99 prebeta 5 from 4. May 2009

EAC extraction logfile from 12. June 2010, 23:17

Bud Powell / The Amazing Bud Powell Volume Three - Bud!

Used drive : hp DVDRAM GT20L Adapter: 1 ID: 0

Read mode : Secure
Utilize accurate stream : Yes
Defeat audio cache : Yes
Make use of C2 pointers : Yes

Combined read/write offset correction : 5
Overread into Lead-In and Lead-Out : Yes
Fill up missing offset samples with silence : Yes
Delete leading and trailing silent blocks : No
Null samples used in CRC calculations : No
Normalize to : 99 %
Used interface : Native Win32 interface for Win NT & 2000
Gap handling : Left out

Used output format : User Defined Encoder
Selected bitrate : 768 kBit/s
Quality : High
Add ID3 tag : No
Command line compressor : C:\Program Files (x86)\Exact Audio Copy\FLAC\FLAC.EXE
Additional command line options : -6 -V -T "ARTIST=%a" -T "TITLE=%t" -T "ALBUM=%g" -T "DATE=%y" -T "TRACKNUMBER=%n" -T "GENRE=%m" -T "COMMENT=%e" %s -o %d


TOC of the extracted CD

Track | Start | Length | Start sector | End sector
---------------------------------------------------------
1 | 0:00.00 | 6:59.62 | 0 | 31486
2 | 6:59.62 | 3:49.00 | 31487 | 48661
3 | 10:48.62 | 4:53.29 | 48662 | 70665
4 | 15:42.16 | 2:33.33 | 70666 | 82173
5 | 18:15.49 | 2:57.19 | 82174 | 95467
6 | 21:12.68 | 5:18.42 | 95468 | 119359
7 | 26:31.35 | 7:33.74 | 119360 | 153408
8 | 34:05.34 | 5:49.04 | 153409 | 179587
9 | 39:54.38 | 4:03.24 | 179588 | 197836


Track 1

Filename C:\Users\ezio\Documents\uploads\Bud Powell\The Amazing Bud Powell Volume Three - Bud!\01. Some Soul.wav

Pre-gap length 0:00:02.00

Peak level 97.9 %
Track quality 100.0 %
Test CRC B29359F3
Copy CRC B29359F3
Copy OK

Track 2

Filename C:\Users\ezio\Documents\uploads\Bud Powell\The Amazing Bud Powell Volume Three - Bud!\02. Blue Pearl.wav

Pre-gap length 0:00:03.02

Peak level 97.9 %
Track quality 100.0 %
Test CRC 74CCE13A
Copy CRC 74CCE13A
Copy OK

Track 3

Filename C:\Users\ezio\Documents\uploads\Bud Powell\The Amazing Bud Powell Volume Three - Bud!\03. Frantic Fancies.wav

Pre-gap length 0:00:02.59

Peak level 97.9 %
Track quality 100.0 %
Test CRC F5561B8E
Copy CRC F5561B8E
Copy OK

Track 4

Filename C:\Users\ezio\Documents\uploads\Bud Powell\The Amazing Bud Powell Volume Three - Bud!\04. Bud On Bach.wav

Pre-gap length 0:00:03.06

Peak level 75.3 %
Track quality 100.0 %
Test CRC 2CE53463
Copy CRC 2CE53463
Copy OK

Track 5

Filename C:\Users\ezio\Documents\uploads\Bud Powell\The Amazing Bud Powell Volume Three - Bud!\05. Keepin' In The Groove.wav

Pre-gap length 0:00:03.13

Peak level 97.9 %
Track quality 99.8 %
Test CRC 5437347B
Copy CRC 5437347B
Copy OK

Track 6

Filename C:\Users\ezio\Documents\uploads\Bud Powell\The Amazing Bud Powell Volume Three - Bud!\06. Idaho.wav

Pre-gap length 0:00:03.40

Peak level 97.9 %
Track quality 100.0 %
Test CRC 7C065577
Copy CRC 7C065577
Copy OK

Track 7

Filename C:\Users\ezio\Documents\uploads\Bud Powell\The Amazing Bud Powell Volume Three - Bud!\07. Don't Blame Me.wav

Pre-gap length 0:00:03.53

Peak level 97.9 %
Track quality 100.0 %
Test CRC 1CF352B4
Copy CRC 1CF352B4
Copy OK

Track 8

Filename C:\Users\ezio\Documents\uploads\Bud Powell\The Amazing Bud Powell Volume Three - Bud!\08. Moose The Mooche.wav

Pre-gap length 0:00:02.36

Peak level 97.9 %
Track quality 100.0 %
Test CRC 9B7BD2F7
Copy CRC 9B7BD2F7
Copy OK

Track 9

Filename C:\Users\ezio\Documents\uploads\Bud Powell\The Amazing Bud Powell Volume Three - Bud!\09. Blue Pearl (Alt Tk).wav

Pre-gap length 0:00:03.60

Peak level 97.9 %
Track quality 100.0 %
Test CRC FE822CB1
Copy CRC FE822CB1
Copy OK

No errors occurred

End of status report

This individual has the same drive as me. Noticed the combine offset is 5. Providing he is correct would that make the write offset: -662 (5-667)

This post has been edited by db1989: Aug 1 2013, 00:57
Reason for edit: Use [codebox] for large items.
Go to the top of the page
+Quote Post
Wombat
post Aug 1 2013, 01:28
Post #9





Group: Members
Posts: 1034
Joined: 7-October 01
Member No.: 235



Do you know the log is rjght? At http://www.daefeatures.co.uk you can search the HL-DT-ST drives and lots with a read offset of 667 have a write offset of 0.
Go to the top of the page
+Quote Post
azarlengo781
post Aug 1 2013, 01:41
Post #10





Group: Members
Posts: 9
Joined: 30-July 13
Member No.: 109373



That i am not so sure of. I havent had a chance to try cuetools yet. Been a busy few days at work.
Go to the top of the page
+Quote Post
azarlengo781
post Aug 1 2013, 02:37
Post #11





Group: Members
Posts: 9
Joined: 30-July 13
Member No.: 109373



Didnt see my specific drive but all the +667 had 0 as the write
Go to the top of the page
+Quote Post
azarlengo781
post Aug 2 2013, 03:08
Post #12





Group: Members
Posts: 9
Joined: 30-July 13
Member No.: 109373



Think im just going to assume the write offset is
"0". Every single +667 read offset has a write of "0" on that list
Go to the top of the page
+Quote Post

Reply to this topicStart new topic
1 User(s) are reading this topic (1 Guests and 0 Anonymous Users)
0 Members:

 



RSS Lo-Fi Version Time is now: 17th September 2014 - 20:40