IPB

Welcome Guest ( Log In | Register )

 
Reply to this topicStart new topic
XLD: I can't burn my rips: CUE+WAV. Please Help, XLD (and OS X) n00b. Please help!
Bad Tax
post May 5 2010, 11:38
Post #1





Group: Members
Posts: 6
Joined: 5-May 10
Member No.: 80418



I'm a mac OS X and XLD n00b. (Please be patient).

I have ripped a CD with XLD to CUE+WAV and I tried using Burn (Version 2.4.1u) to burn it, but it crashed. I then rippedd a (test) CD single as CUE+AIFF and Burn was able to burn that successfully. So I thought that's the key, use AIFF's instead of WAVs.

But no. I re-ripped the original CD as a CUE+AIFF but Burn just crashed when I tried to burn it. I am beginning to think Burn isn't up to the task.

Does any one have any recommendations for a good, reliable free app that will burn CUE files and WAV/AIFF/FLAC etc (as opposed to BIN)

Thank you
Go to the top of the page
+Quote Post
db1989
post May 5 2010, 11:51
Post #2





Group: Super Moderator
Posts: 5275
Joined: 23-June 06
Member No.: 32180



Did you consider that if the audio file isn't the problem, perhaps the cuesheet is? If you post it, like so:
CODE
[codebox]paste here[/codebox]
. . . other members can check if there's anything in it that Burrrn (or other applications) may not like.
Go to the top of the page
+Quote Post
Bad Tax
post May 5 2010, 14:19
Post #3





Group: Members
Posts: 6
Joined: 5-May 10
Member No.: 80418



QUOTE (dv1989 @ May 5 2010, 11:51) *
Did you consider that if the audio file isn't the problem, perhaps the cuesheet is?

No, I never thought of that.

The CUE for the WAV of album CD that Burn cant burn
CODE
CATALOG 0042281700323
FILE "Audio CD.wav" WAVE
TRACK 01 AUDIO
INDEX 00 00:00:00
INDEX 01 00:00:32
TRACK 02 AUDIO
INDEX 00 03:57:35
INDEX 01 04:01:15
TRACK 03 AUDIO
INDEX 00 07:51:47
INDEX 01 07:54:00
TRACK 04 AUDIO
INDEX 00 10:52:25
INDEX 01 10:53:65
TRACK 05 AUDIO
INDEX 00 14:55:47
INDEX 01 14:57:57
TRACK 06 AUDIO
INDEX 00 18:55:00
INDEX 01 18:58:30
TRACK 07 AUDIO
INDEX 01 22:03:10
TRACK 08 AUDIO
INDEX 00 25:25:32
INDEX 01 25:29:47
TRACK 09 AUDIO
INDEX 00 29:50:72
INDEX 01 29:54:27
TRACK 10 AUDIO
INDEX 00 33:35:52
INDEX 01 33:38:45
TRACK 11 AUDIO
INDEX 00 38:07:42
INDEX 01 38:10:42
TRACK 12 AUDIO
INDEX 00 41:35:02
INDEX 01 41:38:10
TRACK 13 AUDIO
INDEX 00 44:24:00
INDEX 01 44:26:45
TRACK 14 AUDIO
INDEX 00 46:42:55
INDEX 01 46:45:20


The CUE for the AIFF of the album that Burn cant burn
CODE
TITLE "The Essential"
PERFORMER "Jean-Michel Jarre"
CATALOG 0042281700323
REM GENRE "Electronic"
REM DATE 1983
FILE "The Essential.aiff" WAVE
TRACK 01 AUDIO
TITLE "Oxygene Part IV"
INDEX 00 00:00:00
INDEX 01 00:00:32
TRACK 02 AUDIO
TITLE "Equinoxe Part V"
INDEX 00 03:57:35
INDEX 01 04:01:15
TRACK 03 AUDIO
TITLE "Oxygene Part II"
INDEX 00 07:51:47
INDEX 01 07:54:00
TRACK 04 AUDIO
TITLE "Magnetic Fields Part II"
INDEX 00 10:52:25
INDEX 01 10:53:65
TRACK 05 AUDIO
TITLE "Orient Express"
INDEX 00 14:55:47
INDEX 01 14:57:57
TRACK 06 AUDIO
TITLE "Magnetic Fields Part I"
INDEX 00 18:55:00
INDEX 01 18:58:30
TRACK 07 AUDIO
TITLE "Fishing Junks at Sunset"
INDEX 01 22:03:10
TRACK 08 AUDIO
TITLE "The Overture"
INDEX 00 25:25:32
INDEX 01 25:29:47
TRACK 09 AUDIO
TITLE "Equinoxe Part IV"
INDEX 00 29:50:72
INDEX 01 29:54:27
TRACK 10 AUDIO
TITLE "Oxygene Part VI"
INDEX 00 33:35:52
INDEX 01 33:38:45
TRACK 11 AUDIO
TITLE "Magnetic Fields Part IV"
INDEX 00 38:07:42
INDEX 01 38:10:42
TRACK 12 AUDIO
TITLE "Equinoxe Part III"
INDEX 00 41:35:02
INDEX 01 41:38:10
TRACK 13 AUDIO
TITLE "Equinoxe Part I"
INDEX 00 44:24:00
INDEX 01 44:26:45
TRACK 14 AUDIO
TITLE "Magnetic Fields Part V"
INDEX 00 46:42:55
INDEX 01 46:45:20



And the CUE for the 'test' CD single that works in Burn

CODE
TITLE "Near Wild Heaven (CD Single)"
PERFORMER "R.E.M."
REM GENRE "Rock"
REM DATE 1991
FILE "Near Wild Heaven (CD Single).aiff" WAVE
TRACK 01 AUDIO
TITLE "Near Wild Heaven"
INDEX 01 00:00:00
TRACK 02 AUDIO
TITLE "Tom's Diner (Live)"
INDEX 00 03:16:25
INDEX 01 03:17:37
TRACK 03 AUDIO
TITLE "Low (Live)"
INDEX 00 05:21:15
INDEX 01 05:21:52
TRACK 04 AUDIO
TITLE "Endgame (Live)"
INDEX 01 10:21:25



QUOTE (dv1989 @ May 5 2010, 11:51) *
if there's anything in it that Burrrn (or other applications) may not like.


(Just to clarify, its Burn that I was talking about.)

Thanks.
Go to the top of the page
+Quote Post
Bad Tax
post May 5 2010, 17:21
Post #4





Group: Members
Posts: 6
Joined: 5-May 10
Member No.: 80418



I came across SimplyBurns (Version 416) and I installed it but it crashes in the same way as Burn did!! ohmy.gif

The short 'test' CD single burnt but the 2 versions (WAV and AIFF) of the 'full' CD caused a crash

This post has been edited by Bad Tax: May 5 2010, 17:23
Go to the top of the page
+Quote Post
mixminus1
post May 5 2010, 18:11
Post #5





Group: Members
Posts: 688
Joined: 23-February 05
Member No.: 20097



My first guess would be that the "CATALOG" entry is causing problems...I don't *think* that's a valid CUE sheet heading/category, and it should be "REM"'d out like GENRE and DATE, or removed altogether.

Try opening up your CUE sheets in TextEdit and just deleting the entire CATALOG line.


--------------------
"Not sure what the question is, but the answer is probably no."
Go to the top of the page
+Quote Post
greynol
post May 5 2010, 18:34
Post #6





Group: Super Moderator
Posts: 10000
Joined: 1-April 04
From: San Francisco
Member No.: 13167



QUOTE (mixminus1 @ May 5 2010, 10:11) *
My first guess would be that the "CATALOG" entry is causing problems...I don't *think* that's a valid CUE sheet heading/category, and it should be "REM"'d out like GENRE and DATE, or removed altogether.

It is indeed a valid heading.

http://wiki.hydrogenaudio.org/index.php?title=Cuesheet
http://digitalx.org/cuesheetsyntax.php

EDIT: This is not to say that it can't be the OP's problem. The other obvious difference I see is that the sheets for the titles that cannot burn have a 00 index before the start of track 1. If I were to guess however, I think it's more likely that the CATALOG line is the culprit. If it turns out that either of these is indeed the reason then it would be either a hardware problem or a software problem.

This post has been edited by greynol: May 5 2010, 19:28


--------------------
Concern trolls: not a myth.
Go to the top of the page
+Quote Post
mixminus1
post May 5 2010, 19:05
Post #7





Group: Members
Posts: 688
Joined: 23-February 05
Member No.: 20097



Well, I sit corrected. smile.gif


--------------------
"Not sure what the question is, but the answer is probably no."
Go to the top of the page
+Quote Post
Bad Tax
post May 6 2010, 10:56
Post #8





Group: Members
Posts: 6
Joined: 5-May 10
Member No.: 80418



Thank you guys. Removing the CATALOG line fixed the problem. (Both in Burn and SimplyBurns)

Why would the test CD single not have CATALOG line in it's CUE sheet, both were ripped using XLD? I would have thought that XLD would have a uniform CUE sheet for all CDs?


Once again thank you. I would never have thought the bug was in the CUE sheet. I would have presumed it was the burning software. You've saved an OS X and XLD n00b from ruining in circles trying to get unnecessary burning apps that would never have fixed the problem.

Cheers. wink.gif

Go to the top of the page
+Quote Post
db1989
post May 6 2010, 11:49
Post #9





Group: Super Moderator
Posts: 5275
Joined: 23-June 06
Member No.: 32180



QUOTE
I would have thought that XLD would have a uniform CUE sheet for all CDs?

No. A cue sheet details the layout of a CD, and clearly all CDs are not identical. I recommend reading greynol's links and Wikipedia's article about cue sheets.
Go to the top of the page
+Quote Post
Bad Tax
post May 6 2010, 12:00
Post #10





Group: Members
Posts: 6
Joined: 5-May 10
Member No.: 80418



No, I don't mean for the contents of the CD. I mean the way the CUE sheet is formatted. I believe the term "cue sheet syntax" is used in the wikipedia article.

I would have thought that the cue sheet syntax would be the same in each CUE sheet produced by XLD. And it may well be.... I'm not really sure what a CATALOG number is and so perhaps not every CD has a CATALOG number and that's why XLD omitted it for the CUE sheet on the test CD single? I found it strange that it was included in one CUE sheet but not the other. I've read http://digitalx.org/cuesheetsyntax.php#catalog but I'm not sure if every CD is supposed to have a CATALOG number or not.

This post has been edited by Bad Tax: May 6 2010, 12:02
Go to the top of the page
+Quote Post
db1989
post May 6 2010, 12:51
Post #11





Group: Super Moderator
Posts: 5275
Joined: 23-June 06
Member No.: 32180



QUOTE (Bad Tax @ May 6 2010, 12:00) *
perhaps not every CD has a CATALOG number and that's why XLD omitted it for the CUE sheet on the test CD single?

Precisely. The only fields that are essential are FILE, TRACK and INDEX 01.
Go to the top of the page
+Quote Post
greynol
post May 6 2010, 16:16
Post #12





Group: Super Moderator
Posts: 10000
Joined: 1-April 04
From: San Francisco
Member No.: 13167



QUOTE (Bad Tax @ May 6 2010, 02:56) *
I would never have thought the bug was in the CUE sheet.

It isn't a bug in the CUE sheet. Did you read the edit in my previous post???

CDs do not have to have CATALOG numbers, so don't be surprised to see some that don't. XLD didn't omit anything. wink.gif

This post has been edited by greynol: May 6 2010, 16:18


--------------------
Concern trolls: not a myth.
Go to the top of the page
+Quote Post
lowkey3
post Mar 30 2011, 04:55
Post #13





Group: Members
Posts: 1
Joined: 30-March 11
Member No.: 89417



Your cue sheet should say AIFF or WAVE corresponding to what type of FILE you're using

CODE
TITLE "The Essential"
PERFORMER "Jean-Michel Jarre"
CATALOG 0042281700323
REM GENRE "Electronic"
REM DATE 1983
FILE "The Essential.aiff" AIFF
TRACK 01 AUDIO
TITLE "Oxygene Part IV"
INDEX 00 00:00:00
INDEX 01 00:00:32
Go to the top of the page
+Quote Post

Reply to this topicStart new topic
1 User(s) are reading this topic (1 Guests and 0 Anonymous Users)
0 Members:

 



RSS Lo-Fi Version Time is now: 22nd August 2014 - 10:25